  0
SECTION
  2
HEADER
  9
$ACADVER
  1
AC1015
  9
$ACADMAINTVER
 70
     6
  9
$DWGCODEPAGE
  3
ANSI_1252
  9
$INSBASE
 10
0.0
 20
0.0
 30
0.0
  9
$EXTMIN
 10
338.8654851797119
 20
4.99999999999993
 30
0.0
  9
$EXTMAX
 10
635.865485179712
 20
215.0
 30
0.0
  9
$LIMMIN
 10
0.0
 20
0.0
  9
$LIMMAX
 10
12.0
 20
9.0
  9
$ORTHOMODE
 70
     0
  9
$REGENMODE
 70
     1
  9
$FILLMODE
 70
     1
  9
$QTEXTMODE
 70
     0
  9
$MIRRTEXT
 70
     1
  9
$LTSCALE
 40
1.0
  9
$ATTMODE
 70
     1
  9
$TEXTSIZE
 40
0.2
  9
$TRACEWID
 40
0.05
  9
$TEXTSTYLE
  7
Standard
  9
$CLAYER
  8
0
  9
$CELTYPE
  6
ByLayer
  9
$CECOLOR
 62
   256
  9
$CELTSCALE
 40
1.0
  9
$DISPSILH
 70
     0
  9
$DIMSCALE
 40
1.0
  9
$DIMASZ
 40
0.18
  9
$DIMEXO
 40
0.0625
  9
$DIMDLI
 40
0.38
  9
$DIMRND
 40
0.0
  9
$DIMDLE
 40
0.0
  9
$DIMEXE
 40
0.18
  9
$DIMTP
 40
0.0
  9
$DIMTM
 40
0.0
  9
$DIMTXT
 40
0.18
  9
$DIMCEN
 40
0.09
  9
$DIMTSZ
 40
0.0
  9
$DIMTOL
 70
     0
  9
$DIMLIM
 70
     0
  9
$DIMTIH
 70
     1
  9
$DIMTOH
 70
     1
  9
$DIMSE1
 70
     0
  9
$DIMSE2
 70
     0
  9
$DIMTAD
 70
     0
  9
$DIMZIN
 70
     0
  9
$DIMBLK
  1

  9
$DIMASO
 70
     1
  9
$DIMSHO
 70
     1
  9
$DIMPOST
  1

  9
$DIMAPOST
  1

  9
$DIMALT
 70
     0
  9
$DIMALTD
 70
     2
  9
$DIMALTF
 40
25.4
  9
$DIMLFAC
 40
1.0
  9
$DIMTOFL
 70
     0
  9
$DIMTVP
 40
0.0
  9
$DIMTIX
 70
     0
  9
$DIMSOXD
 70
     0
  9
$DIMSAH
 70
     0
  9
$DIMBLK1
  1

  9
$DIMBLK2
  1

  9
$DIMSTYLE
  2
Standard
  9
$DIMCLRD
 70
     0
  9
$DIMCLRE
 70
     0
  9
$DIMCLRT
 70
     0
  9
$DIMTFAC
 40
1.0
  9
$DIMGAP
 40
0.09
  9
$DIMJUST
 70
     0
  9
$DIMSD1
 70
     0
  9
$DIMSD2
 70
     0
  9
$DIMTOLJ
 70
     1
  9
$DIMTZIN
 70
     0
  9
$DIMALTZ
 70
     0
  9
$DIMALTTZ
 70
     0
  9
$DIMUPT
 70
     0
  9
$DIMDEC
 70
     4
  9
$DIMTDEC
 70
     4
  9
$DIMALTU
 70
     2
  9
$DIMALTTD
 70
     2
  9
$DIMTXSTY
  7
Standard
  9
$DIMAUNIT
 70
     0
  9
$DIMADEC
 70
     0
  9
$DIMALTRND
 40
0.0
  9
$DIMAZIN
 70
     0
  9
$DIMDSEP
 70
    46
  9
$DIMATFIT
 70
     3
  9
$DIMFRAC
 70
     0
  9
$DIMLDRBLK
  1

  9
$DIMLUNIT
 70
     2
  9
$DIMLWD
 70
    -2
  9
$DIMLWE
 70
    -2
  9
$DIMTMOVE
 70
     0
  9
$LUNITS
 70
     2
  9
$LUPREC
 70
     4
  9
$SKETCHINC
 40
0.1
  9
$FILLETRAD
 40
0.5
  9
$AUNITS
 70
     0
  9
$AUPREC
 70
     0
  9
$MENU
  1
.
  9
$ELEVATION
 40
0.0
  9
$PELEVATION
 40
0.0
  9
$THICKNESS
 40
0.0
  9
$LIMCHECK
 70
     0
  9
$CHAMFERA
 40
0.5
  9
$CHAMFERB
 40
0.5
  9
$CHAMFERC
 40
1.0
  9
$CHAMFERD
 40
0.0
  9
$SKPOLY
 70
     0
  9
$TDCREATE
 40
2456997.611434699
  9
$TDUCREATE
 40
2456997.569768033
  9
$TDUPDATE
 40
2456997.611435058
  9
$TDUUPDATE
 40
2456997.569768391
  9
$TDINDWG
 40
0.0000000116
  9
$TDUSRTIMER
 40
0.0000000116
  9
$USRTIMER
 70
     1
  9
$ANGBASE
 50
0.0
  9
$ANGDIR
 70
     0
  9
$PDMODE
 70
     0
  9
$PDSIZE
 40
0.0
  9
$PLINEWID
 40
0.0
  9
$SPLFRAME
 70
     0
  9
$SPLINETYPE
 70
     6
  9
$SPLINESEGS
 70
     8
  9
$HANDSEED
  5
7BE
  9
$SURFTAB1
 70
     6
  9
$SURFTAB2
 70
     6
  9
$SURFTYPE
 70
     6
  9
$SURFU
 70
     6
  9
$SURFV
 70
     6
  9
$UCSBASE
  2

  9
$UCSNAME
  2

  9
$UCSORG
 10
0.0
 20
0.0
 30
0.0
  9
$UCSXDIR
 10
1.0
 20
0.0
 30
0.0
  9
$UCSYDIR
 10
0.0
 20
1.0
 30
0.0
  9
$UCSORTHOREF
  2

  9
$UCSORTHOVIEW
 70
     0
  9
$UCSORGTOP
 10
0.0
 20
0.0
 30
0.0
  9
$UCSORGBOTTOM
 10
0.0
 20
0.0
 30
0.0
  9
$UCSORGLEFT
 10
0.0
 20
0.0
 30
0.0
  9
$UCSORGRIGHT
 10
0.0
 20
0.0
 30
0.0
  9
$UCSORGFRONT
 10
0.0
 20
0.0
 30
0.0
  9
$UCSORGBACK
 10
0.0
 20
0.0
 30
0.0
  9
$PUCSBASE
  2

  9
$PUCSNAME
  2

  9
$PUCSORG
 10
0.0
 20
0.0
 30
0.0
  9
$PUCSXDIR
 10
1.0
 20
0.0
 30
0.0
  9
$PUCSYDIR
 10
0.0
 20
1.0
 30
0.0
  9
$PUCSORTHOREF
  2

  9
$PUCSORTHOVIEW
 70
     0
  9
$PUCSORGTOP
 10
0.0
 20
0.0
 30
0.0
  9
$PUCSORGBOTTOM
 10
0.0
 20
0.0
 30
0.0
  9
$PUCSORGLEFT
 10
0.0
 20
0.0
 30
0.0
  9
$PUCSORGRIGHT
 10
0.0
 20
0.0
 30
0.0
  9
$PUCSORGFRONT
 10
0.0
 20
0.0
 30
0.0
  9
$PUCSORGBACK
 10
0.0
 20
0.0
 30
0.0
  9
$USERI1
 70
     0
  9
$USERI2
 70
     0
  9
$USERI3
 70
     0
  9
$USERI4
 70
     0
  9
$USERI5
 70
     0
  9
$USERR1
 40
18.1
  9
$USERR2
 40
0.0
  9
$USERR3
 40
0.0
  9
$USERR4
 40
0.0
  9
$USERR5
 40
0.0
  9
$WORLDVIEW
 70
     1
  9
$SHADEDGE
 70
     3
  9
$SHADEDIF
 70
    70
  9
$TILEMODE
 70
     1
  9
$MAXACTVP
 70
    64
  9
$PINSBASE
 10
0.0
 20
0.0
 30
0.0
  9
$PLIMCHECK
 70
     0
  9
$PEXTMIN
 10
1.00000000000000E+20
 20
1.00000000000000E+20
 30
1.00000000000000E+20
  9
$PEXTMAX
 10
-1.00000000000000E+20
 20
-1.00000000000000E+20
 30
-1.00000000000000E+20
  9
$PLIMMIN
 10
0.0
 20
0.0
  9
$PLIMMAX
 10
12.0
 20
9.0
  9
$UNITMODE
 70
     0
  9
$VISRETAIN
 70
     1
  9
$PLINEGEN
 70
     0
  9
$PSLTSCALE
 70
     1
  9
$TREEDEPTH
 70
  3020
  9
$CMLSTYLE
  2
Standard
  9
$CMLJUST
 70
     0
  9
$CMLSCALE
 40
1.0
  9
$PROXYGRAPHICS
 70
     1
  9
$MEASUREMENT
 70
     1
  9
$CELWEIGHT
370
    -1
  9
$ENDCAPS
280
     0
  9
$JOINSTYLE
280
     0
  9
$LWDISPLAY
290
     0
  9
$INSUNITS
 70
     4
  9
$HYPERLINKBASE
  1

  9
$STYLESHEET
  1

  9
$XEDIT
290
     1
  9
$CEPSNTYPE
380
     0
  9
$PSTYLEMODE
290
     1
  9
$FINGERPRINTGUID
  2
{17A9F2F8-FB99-4407-BFA2-B0A8284CB22F}
  9
$VERSIONGUID
  2
{FAEB1C32-E019-11D5-929B-00C0DF256EC4}
  9
$EXTNAMES
290
     1
  9
$PSVPSCALE
 40
0.0
  9
$OLESTARTUP
290
     0
  0
ENDSEC
  0
SECTION
  2
CLASSES
  0
CLASS
  1
ACDBDICTIONARYWDFLT
  2
AcDbDictionaryWithDefault
  3
ObjectDBX Classes
 90
        0
280
     0
281
     0
  0
CLASS
  1
VISUALSTYLE
  2
AcDbVisualStyle
  3
ObjectDBX Classes
 90
     4095
280
     0
281
     0
  0
CLASS
  1
MATERIAL
  2
AcDbMaterial
  3
ObjectDBX Classes
 90
     1153
280
     0
281
     0
  0
CLASS
  1
DICTIONARYVAR
  2
AcDbDictionaryVar
  3
ObjectDBX Classes
 90
        0
280
     0
281
     0
  0
CLASS
  1
ACDBPLACEHOLDER
  2
AcDbPlaceHolder
  3
ObjectDBX Classes
 90
        0
280
     0
281
     0
  0
CLASS
  1
LAYOUT
  2
AcDbLayout
  3
ObjectDBX Classes
 90
        0
280
     0
281
     0
  0
ENDSEC
  0
SECTION
  2
TABLES
  0
TABLE
  2
VPORT
  5
8
330
0
100
AcDbSymbolTable
 70
     1
  0
VPORT
  5
29
330
8
100
AcDbSymbolTableRecord
100
AcDbViewportTableRecord
  2
*Active
 70
     0
 10
0.0
 20
0.0
 11
1.0
 21
1.0
 12
487.365485179712
 22
110.0
 13
0.0
 23
0.0
 14
0.5
 24
0.5
 15
0.5
 25
0.5
 16
0.0
 26
0.0
 36
1.0
 17
0.0
 27
0.0
 37
0.0
 40
231.0000000000001
 41
1.60267857142857
 42
50.0
 43
0.0
 44
0.0
 50
0.0
 51
0.0
 71
     0
 72
   100
 73
     1
 74
     3
 75
     0
 76
     0
 77
     0
 78
     0
281
     0
 65
     1
110
0.0
120
0.0
130
0.0
111
1.0
121
0.0
131
0.0
112
0.0
122
1.0
132
0.0
 79
     0
146
0.0
  0
ENDTAB
  0
TABLE
  2
LTYPE
  5
5
330
0
100
AcDbSymbolTable
 70
    10
  0
LTYPE
  5
14
330
5
100
AcDbSymbolTableRecord
100
AcDbLinetypeTableRecord
  2
ByBlock
 70
     0
  3

 72
    65
 73
     0
 40
0.0
  0
LTYPE
  5
15
330
5
100
AcDbSymbolTableRecord
100
AcDbLinetypeTableRecord
  2
ByLayer
 70
     0
  3

 72
    65
 73
     0
 40
0.0
  0
LTYPE
  5
16
330
5
100
AcDbSymbolTableRecord
100
AcDbLinetypeTableRecord
  2
Continuous
 70
     0
  3
Solid line
 72
    65
 73
     0
 40
0.0
  0
LTYPE
  5
3F
330
5
100
AcDbSymbolTableRecord
100
AcDbLinetypeTableRecord
  2
DASHED
 70
     0
  3
Dashed
 72
    65
 73
     2
 40
15.0
 49
7.0
 74
     0
 49
-8.0
 74
     0
  0
LTYPE
  5
40
330
5
100
AcDbSymbolTableRecord
100
AcDbLinetypeTableRecord
  2
DOTTED
 70
     0
  3
Dotted
 72
    65
 73
     2
 40
1.0
 49
0.0
 74
     0
 49
-1.0
 74
     0
  0
LTYPE
  5
41
330
5
100
AcDbSymbolTableRecord
100
AcDbLinetypeTableRecord
  2
DOT_CENTER
 70
     0
  3
Dot_Center
 72
    65
 73
     4
 40
14.0
 49
12.0
 74
     0
 49
-1.0
 74
     0
 49
0.0
 74
     0
 49
-1.0
 74
     0
  0
LTYPE
  5
42
330
5
100
AcDbSymbolTableRecord
100
AcDbLinetypeTableRecord
  2
LONG_DASHED
 70
     0
  3
Long_Dashed
 72
    65
 73
     2
 40
15.0
 49
10.0
 74
     0
 49
-5.0
 74
     0
  0
LTYPE
  5
43
330
5
100
AcDbSymbolTableRecord
100
AcDbLinetypeTableRecord
  2
DASH_CENTER
 70
     0
  3
Dash_Center
 72
    65
 73
     4
 40
14.0
 49
11.0
 74
     0
 49
-1.0
 74
     0
 49
1.0
 74
     0
 49
-1.0
 74
     0
  0
LTYPE
  5
44
330
5
100
AcDbSymbolTableRecord
100
AcDbLinetypeTableRecord
  2
PHANTOM
 70
     0
  3
Phantom
 72
    65
 73
     6
 40
13.0
 49
10.0
 74
     0
 49
-1.0
 74
     0
 49
0.0
 74
     0
 49
-1.0
 74
     0
 49
0.0
 74
     0
 49
-1.0
 74
     0
  0
LTYPE
  5
45
330
5
100
AcDbSymbolTableRecord
100
AcDbLinetypeTableRecord
  2
CENTER_DASH_DASH
 70
     0
  3
Center_Dash_Dash
 72
    65
 73
     6
 40
14.0
 49
9.0
 74
     0
 49
-1.0
 74
     0
 49
1.0
 74
     0
 49
-1.0
 74
     0
 49
1.0
 74
     0
 49
-1.0
 74
     0
  0
LTYPE
  5
46
330
5
100
AcDbSymbolTableRecord
100
AcDbLinetypeTableRecord
  2
CHAIN
 70
     0
  3
CHAIN
 72
    65
 73
     4
 40
4.0
 49
1.0
 74
     0
 49
-1.0
 74
     0
 49
1.0
 74
     0
 49
-1.0
 74
     0
  0
LTYPE
  5
47
330
5
100
AcDbSymbolTableRecord
100
AcDbLinetypeTableRecord
  2
DASHED_SPACE
 70
     0
  3
DASHED_SPACE
 72
    65
 73
     2
 40
2.0
 49
1.0
 74
     0
 49
-1.0
 74
     0
  0
ENDTAB
  0
TABLE
  2
LAYER
  5
2
330
0
100
AcDbSymbolTable
 70
     8
  0
LAYER
  5
10
330
2
100
AcDbSymbolTableRecord
100
AcDbLayerTableRecord
  2
0
 70
     0
 62
     7
  6
Continuous
370
    -3
390
F
  0
LAYER
  5
48
330
2
100
AcDbSymbolTableRecord
100
AcDbLayerTableRecord
  2
1
 70
     0
 62
     7
  6
Continuous
370
    -3
390
F
  0
LAYER
  5
49
330
2
100
AcDbSymbolTableRecord
100
AcDbLayerTableRecord
  2
Bemaßungen_TC_020513_DIN_
 70
     0
 62
     7
  6
Continuous
370
    -3
390
F
  0
LAYER
  5
4A
330
2
100
AcDbSymbolTableRecord
100
AcDbLayerTableRecord
  2
Mittellinie_TC_020513_DIN_
 70
     0
 62
     7
  6
Continuous
370
    -3
390
F
  0
LAYER
  5
4B
330
2
100
AcDbSymbolTableRecord
100
AcDbLayerTableRecord
  2
Mittelpunktmarkierung_TC_020513_DIN_
 70
     0
 62
     7
  6
Continuous
370
    -3
390
F
  0
LAYER
  5
4C
330
2
100
AcDbSymbolTableRecord
100
AcDbLayerTableRecord
  2
Sichtbare_Kanten_TC_020513_DIN_
 70
     0
 62
     7
  6
Continuous
370
    -3
390
F
  0
LAYER
  5
4D
330
2
100
AcDbSymbolTableRecord
100
AcDbLayerTableRecord
  2
Stich_1-Linien_TC_020513_DIN_
 70
     0
 62
     7
  6
Continuous
370
    -3
390
F
  0
LAYER
  5
4E
330
2
100
AcDbSymbolTableRecord
100
AcDbLayerTableRecord
  2
Symbole_TC_020513_DIN_
 70
     0
 62
     7
  6
Continuous
370
    -3
390
F
  0
ENDTAB
  0
TABLE
  2
STYLE
  5
3
330
0
100
AcDbSymbolTable
 70
     4
  0
STYLE
  5
11
330
3
100
AcDbSymbolTableRecord
100
AcDbTextStyleTableRecord
  2
Standard
 70
     0
 40
0.0
 41
1.0
 50
0.0
 71
     0
 42
0.2
  3
txt
  4

  0
STYLE
  5
A3
330
3
100
AcDbSymbolTableRecord
100
AcDbTextStyleTableRecord
  2
CONVERTER_11
 70
     0
 40
0.0
 41
1.2
 50
0.0
 71
     0
 42
0.2
  3
ARIAL.TTF
  4

  0
STYLE
  5
A8
330
3
100
AcDbSymbolTableRecord
100
AcDbTextStyleTableRecord
  2
CONVERTER_12
 70
     0
 40
0.0
 41
1.38
 50
0.0
 71
     0
 42
0.2
  3
ARIAL.TTF
  4

  0
STYLE
  5
723
330
3
100
AcDbSymbolTableRecord
100
AcDbTextStyleTableRecord
  2
CONVERTER_13
 70
     0
 40
0.0
 41
0.75
 50
0.0
 71
     0
 42
0.2
  3
txt.shx
  4

  0
ENDTAB
  0
TABLE
  2
VIEW
  5
6
330
0
100
AcDbSymbolTable
 70
     0
  0
ENDTAB
  0
TABLE
  2
UCS
  5
7
330
0
100
AcDbSymbolTable
 70
     0
  0
ENDTAB
  0
TABLE
  2
APPID
  5
9
330
0
100
AcDbSymbolTable
 70
     1
  0
APPID
  5
12
330
9
100
AcDbSymbolTableRecord
100
AcDbRegAppTableRecord
  2
ACAD
 70
     0
  0
ENDTAB
  0
TABLE
  2
DIMSTYLE
  5
A
330
0
100
AcDbSymbolTable
 70
    11
100
AcDbDimStyleTable
  0
DIMSTYLE
105
27
330
A
100
AcDbSymbolTableRecord
100
AcDbDimStyleTableRecord
  2
Standard
 70
     0
178
     0
340
11
  0
DIMSTYLE
105
72E
102
{ACAD_REACTORS
330
72F
102
}
330
A
100
AcDbSymbolTableRecord
100
AcDbDimStyleTableRecord
  2
ME10_DIM_10
 70
     0
 41
2.5
 42
1.0
 44
2.0
 73
     0
 74
     0
 77
     1
 78
    12
140
3.5
147
0.8
172
     1
173
     1
174
     1
175
     1
176
     7
177
     7
271
     2
178
     7
271
     2
340
723
  0
DIMSTYLE
105
739
102
{ACAD_REACTORS
330
73A
102
}
330
A
100
AcDbSymbolTableRecord
100
AcDbDimStyleTableRecord
  2
ME10_DIM_11
 70
     0
 41
2.5
 42
1.0
 44
2.0
 73
     0
 74
     0
 77
     1
 78
    12
140
3.5
147
0.8
172
     1
173
     1
174
     1
175
     1
176
     7
177
     7
271
     0
178
     7
271
     0
340
723
  0
DIMSTYLE
105
744
102
{ACAD_REACTORS
330
745
102
}
330
A
100
AcDbSymbolTableRecord
100
AcDbDimStyleTableRecord
  2
ME10_DIM_12
 70
     0
 41
2.5
 42
1.0
 44
2.0
 73
     0
 74
     0
 77
     1
 78
    12
140
3.5
147
0.8
172
     1
173
     1
174
     1
175
     1
176
     7
177
     7
271
     2
178
     7
271
     2
340
723
  0
DIMSTYLE
105
74F
102
{ACAD_REACTORS
330
750
102
}
330
A
100
AcDbSymbolTableRecord
100
AcDbDimStyleTableRecord
  2
ME10_DIM_13
 70
     0
 41
2.5
 42
1.0
 44
2.0
 73
     0
 74
     0
 77
     1
 78
    12
140
3.5
147
0.8
172
     1
173
     1
174
     1
175
     1
176
     7
177
     7
271
     2
178
     7
271
     2
340
723
  0
DIMSTYLE
105
75A
102
{ACAD_REACTORS
330
75B
102
}
330
A
100
AcDbSymbolTableRecord
100
AcDbDimStyleTableRecord
  2
ME10_DIM_14
 70
     0
 41
2.5
 42
1.0
 44
2.0
 73
     0
 74
     0
 77
     1
 78
    12
140
3.5
147
0.8
172
     1
173
     1
174
     1
175
     1
176
     7
177
     7
271
     2
178
     7
271
     2
340
723
  0
DIMSTYLE
105
765
102
{ACAD_REACTORS
330
766
102
}
330
A
100
AcDbSymbolTableRecord
100
AcDbDimStyleTableRecord
  2
ME10_DIM_15
 70
     0
 41
2.5
 42
1.0
 44
2.0
 73
     0
 74
     0
 77
     1
 78
    12
140
3.5
147
0.8
172
     1
173
     1
174
     1
175
     1
176
     7
177
     7
271
     2
178
     7
271
     2
340
723
  0
DIMSTYLE
105
770
102
{ACAD_REACTORS
330
771
102
}
330
A
100
AcDbSymbolTableRecord
100
AcDbDimStyleTableRecord
  2
ME10_DIM_16
 70
     0
 41
2.5
 42
1.0
 44
2.0
 73
     0
 74
     0
 77
     1
 78
    12
140
3.5
147
0.8
172
     1
173
     1
174
     1
175
     1
176
     7
177
     7
271
     2
178
     7
271
     2
340
723
  0
DIMSTYLE
105
77B
102
{ACAD_REACTORS
330
77C
102
}
330
A
100
AcDbSymbolTableRecord
100
AcDbDimStyleTableRecord
  2
ME10_DIM_17
 70
     0
 41
2.5
 42
1.0
 44
2.0
 73
     0
 74
     0
 77
     1
 78
    12
140
3.5
147
0.8
172
     1
173
     1
174
     1
175
     1
176
     7
177
     7
271
     2
178
     7
271
     2
340
723
  0
DIMSTYLE
105
786
102
{ACAD_REACTORS
330
787
102
}
330
A
100
AcDbSymbolTableRecord
100
AcDbDimStyleTableRecord
  2
ME10_DIM_18
 70
     0
 41
2.5
 42
1.0
 44
2.0
 73
     0
 74
     0
 77
     1
 78
    12
140
3.5
147
0.8
172
     1
173
     1
174
     1
175
     1
176
     7
177
     7
271
     2
178
     7
271
     2
340
723
  0
DIMSTYLE
105
791
102
{ACAD_REACTORS
330
792
102
}
330
A
100
AcDbSymbolTableRecord
100
AcDbDimStyleTableRecord
  2
ME10_DIM_19
 70
     0
 41
2.5
 42
1.0
 44
2.0
 73
     0
 74
     0
 77
     1
 78
    12
140
3.5
147
0.8
172
     1
173
     1
174
     1
175
     1
176
     7
177
     7
271
     2
178
     7
271
     2
340
723
  0
ENDTAB
  0
TABLE
  2
BLOCK_RECORD
  5
1
330
0
100
AcDbSymbolTable
 70
    13
  0
BLOCK_RECORD
  5
1F
330
1
100
AcDbSymbolTableRecord
100
AcDbBlockTableRecord
  2
*Model_Space
340
22
  0
BLOCK_RECORD
  5
1B
330
1
100
AcDbSymbolTableRecord
100
AcDbBlockTableRecord
  2
*Paper_Space
340
1E
  0
BLOCK_RECORD
  5
23
330
1
100
AcDbSymbolTableRecord
100
AcDbBlockTableRecord
  2
*Paper_Space0
340
26
  0
BLOCK_RECORD
  5
4F
330
1
100
AcDbSymbolTableRecord
100
AcDbBlockTableRecord
  2
_formato_A4
340
0
102
{BLKREFS
331
53
102
}
  0
BLOCK_RECORD
  5
52
330
1
100
AcDbSymbolTableRecord
100
AcDbBlockTableRecord
  2
A4_oriz
340
0
102
{BLKREFS
331
56
102
}
  0
BLOCK_RECORD
  5
725
330
1
100
AcDbSymbolTableRecord
100
AcDbBlockTableRecord
  2
*D3
340
0
  0
BLOCK_RECORD
  5
730
330
1
100
AcDbSymbolTableRecord
100
AcDbBlockTableRecord
  2
*D4
340
0
  0
BLOCK_RECORD
  5
73B
330
1
100
AcDbSymbolTableRecord
100
AcDbBlockTableRecord
  2
*D5
340
0
  0
BLOCK_RECORD
  5
746
330
1
100
AcDbSymbolTableRecord
100
AcDbBlockTableRecord
  2
*D6
340
0
  0
BLOCK_RECORD
  5
751
330
1
100
AcDbSymbolTableRecord
100
AcDbBlockTableRecord
  2
*D7
340
0
  0
BLOCK_RECORD
  5
75C
330
1
100
AcDbSymbolTableRecord
100
AcDbBlockTableRecord
  2
*D8
340
0
  0
BLOCK_RECORD
  5
767
330
1
100
AcDbSymbolTableRecord
100
AcDbBlockTableRecord
  2
*D9
340
0
  0
BLOCK_RECORD
  5
772
330
1
100
AcDbSymbolTableRecord
100
AcDbBlockTableRecord
  2
*D10
340
0
  0
BLOCK_RECORD
  5
77D
330
1
100
AcDbSymbolTableRecord
100
AcDbBlockTableRecord
  2
*D11
340
0
  0
BLOCK_RECORD
  5
788
330
1
100
AcDbSymbolTableRecord
100
AcDbBlockTableRecord
  2
*D12
340
0
  0
ENDTAB
  0
ENDSEC
  0
SECTION
  2
BLOCKS
  0
BLOCK
  5
20
330
1F
100
AcDbEntity
  8
0
100
AcDbBlockBegin
  2
*Model_Space
 70
     0
 10
0.0
 20
0.0
 30
0.0
  3
*Model_Space
  1

  0
ENDBLK
  5
21
330
1F
100
AcDbEntity
  8
0
100
AcDbBlockEnd
  0
BLOCK
  5
1C
330
1B
100
AcDbEntity
 67
     1
  8
0
100
AcDbBlockBegin
  2
*Paper_Space
 70
     0
 10
0.0
 20
0.0
 30
0.0
  3
*Paper_Space
  1

  0
ENDBLK
  5
1D
330
1B
100
AcDbEntity
 67
     1
  8
0
100
AcDbBlockEnd
  0
BLOCK
  5
24
330
23
100
AcDbEntity
  8
0
100
AcDbBlockBegin
  2
*Paper_Space0
 70
     0
 10
0.0
 20
0.0
 30
0.0
  3
*Paper_Space0
  1

  0
ENDBLK
  5
25
330
23
100
AcDbEntity
  8
0
100
AcDbBlockEnd
  0
BLOCK
  5
50
330
4F
100
AcDbEntity
  8
0
100
AcDbBlockBegin
  2
_formato_A4
 70
     0
 10
635.865485179712
 20
4.99999999999993
 30
0.0
  3
_formato_A4
  1

  0
LINE
  5
57
330
4F
100
AcDbEntity
  8
1
  6
Continuous
 62
     7
100
AcDbLine
 10
446.865485179712
 20
14.99999999999979
 30
0.0
 11
476.865485179712
 21
14.99999999999979
 31
0.0
  0
LINE
  5
58
330
4F
100
AcDbEntity
  8
1
  6
Continuous
 62
     7
100
AcDbLine
 10
446.865485179712
 20
19.99999999999982
 30
0.0
 11
476.865485179712
 21
19.99999999999982
 31
0.0
  0
LINE
  5
59
330
4F
100
AcDbEntity
  8
1
  6
Continuous
 62
     7
100
AcDbLine
 10
586.865485179712
 20
24.99999999999993
 30
0.0
 11
586.865485179712
 21
9.99999999999993
 31
0.0
  0
LINE
  5
5A
330
4F
100
AcDbEntity
  8
1
  6
Continuous
 62
     7
100
AcDbLine
 10
604.2180865571974
 20
24.99999999999993
 30
0.0
 11
604.2180865571974
 21
9.99999999999993
 31
0.0
  0
LINE
  5
5B
330
4F
100
AcDbEntity
  8
1
  6
Continuous
 62
     7
100
AcDbLine
 10
476.865485179712
 20
24.99999999999993
 30
0.0
 11
476.865485179712
 21
9.99999999999993
 31
0.0
  0
LINE
  5
5C
330
4F
100
AcDbEntity
  8
1
  6
Continuous
 62
     7
100
AcDbLine
 10
487.3654851797116
 20
215.0
 30
0.0
 11
487.3654851797116
 21
200.0
 31
0.0
  0
LINE
  5
5D
330
4F
100
AcDbEntity
  8
1
  6
Continuous
 62
     7
100
AcDbLine
 10
338.8654851797119
 20
4.99999999999993
 30
0.0
 11
635.865485179712
 21
4.99999999999993
 31
0.0
  0
LINE
  5
5E
330
4F
100
AcDbEntity
  8
1
  6
Continuous
 62
     7
100
AcDbLine
 10
338.8654851797119
 20
215.0
 30
0.0
 11
338.8654851797119
 21
4.99999999999993
 31
0.0
  0
LINE
  5
5F
330
4F
100
AcDbEntity
  8
1
  6
Continuous
 62
     7
100
AcDbLine
 10
635.865485179712
 20
215.0
 30
0.0
 11
338.8654851797119
 21
215.0
 31
0.0
  0
LINE
  5
60
330
4F
100
AcDbEntity
  8
1
  6
Continuous
 62
     7
100
AcDbLine
 10
635.865485179712
 20
4.99999999999993
 30
0.0
 11
635.865485179712
 21
215.0
 31
0.0
  0
LINE
  5
61
330
4F
100
AcDbEntity
  8
1
  6
Continuous
 62
     7
100
AcDbLine
 10
343.8654851797118
 20
9.99999999999993
 30
0.0
 11
630.865485179712
 21
9.99999999999993
 31
0.0
  0
LINE
  5
62
330
4F
100
AcDbEntity
  8
1
  6
Continuous
 62
     7
100
AcDbLine
 10
630.865485179712
 20
9.99999999999993
 30
0.0
 11
630.865485179712
 21
193.9999999999999
 31
0.0
  0
LINE
  5
63
330
4F
100
AcDbEntity
  8
1
  6
Continuous
 62
     7
100
AcDbLine
 10
630.865485179712
 20
193.9999999999999
 30
0.0
 11
343.8654851797118
 21
193.9999999999999
 31
0.0
  0
LINE
  5
64
102
{ACAD_REACTORS
330
B1
102
}
330
4F
100
AcDbEntity
  8
1
  6
Continuous
 62
     7
100
AcDbLine
 10
619.875119201788
 20
15.07749983983256
 30
0.0
 11
619.875119201788
 21
19.9225001601673
 31
0.0
  0
LINE
  5
65
102
{ACAD_REACTORS
330
AE
102
}
330
4F
100
AcDbEntity
  8
1
  6
Continuous
 62
     7
100
AcDbLine
 10
618.5417858684547
 20
17.49999999999993
 30
0.0
 11
618.5417858684547
 21
19.23205080756877
 31
0.0
  0
LINE
  5
66
102
{ACAD_REACTORS
330
AE
102
}
330
4F
100
AcDbEntity
  8
1
  6
Continuous
 62
     7
100
AcDbLine
 10
618.5417858684547
 20
19.23205080756877
 30
0.0
 11
617.686123435752
 21
17.74999999999993
 31
0.0
  0
LINE
  5
67
102
{ACAD_REACTORS
330
AE
102
}
330
4F
100
AcDbEntity
  8
1
  6
Continuous
 62
     7
100
AcDbLine
 10
617.3974483011572
 20
17.74999999999993
 30
0.0
 11
616.5417858684547
 21
19.23205080756877
 31
0.0
  0
LINE
  5
68
102
{ACAD_REACTORS
330
AE
102
}
330
4F
100
AcDbEntity
  8
1
  6
Continuous
 62
     7
100
AcDbLine
 10
616.5417858684547
 20
19.23205080756877
 30
0.0
 11
616.5417858684547
 21
17.49999999999993
 31
0.0
  0
LINE
  5
69
330
4F
100
AcDbEntity
  8
1
  6
Continuous
 62
     7
100
AcDbLine
 10
609.1253505933131
 20
17.64436426434126
 30
0.0
 11
617.5417858684547
 21
22.49999999999993
 31
0.0
  0
LINE
  5
6A
330
4F
100
AcDbEntity
  8
1
  6
Continuous
 62
     7
100
AcDbLine
 10
617.5417858684547
 20
22.49999999999993
 30
0.0
 11
625.9582211435961
 21
17.64436426434126
 31
0.0
  0
LINE
  5
6B
330
4F
100
AcDbEntity
  8
1
  6
Continuous
 62
     7
100
AcDbLine
 10
625.9582211435961
 20
17.35563573565849
 30
0.0
 11
617.5417858684547
 21
12.49999999999993
 31
0.0
  0
LINE
  5
6C
330
4F
100
AcDbEntity
  8
1
  6
Continuous
 62
     7
100
AcDbLine
 10
617.5417858684547
 20
12.49999999999993
 30
0.0
 11
609.1253505933131
 21
17.35563573565849
 31
0.0
  0
LINE
  5
6D
102
{ACAD_REACTORS
330
AE
102
}
330
4F
100
AcDbEntity
  8
1
  6
Continuous
 62
     7
100
AcDbLine
 10
615.8751192017879
 20
17.49999999999993
 30
0.0
 11
615.8751192017879
 21
20.73121731203451
 31
0.0
  0
LINE
  5
6E
102
{ACAD_REACTORS
330
AE
102
}
330
4F
100
AcDbEntity
  8
1
  6
Continuous
 62
     7
100
AcDbLine
 10
616.3695528854114
 20
20.86370041827222
 30
0.0
 11
617.5417858684547
 21
18.83333333333319
 31
0.0
  0
LINE
  5
6F
102
{ACAD_REACTORS
330
AE
102
}
330
4F
100
AcDbEntity
  8
1
  6
Continuous
 62
     7
100
AcDbLine
 10
615.8751192017879
 20
17.49999999999993
 30
0.0
 11
615.8751192017879
 21
15.84758507263284
 31
0.0
  0
LINE
  5
70
102
{ACAD_REACTORS
330
AE
102
}
330
4F
100
AcDbEntity
  8
1
  6
Continuous
 62
     7
100
AcDbLine
 10
616.5417858684547
 20
15.84758507263284
 30
0.0
 11
616.5417858684547
 21
17.49999999999993
 31
0.0
  0
LINE
  5
71
102
{ACAD_REACTORS
330
AE
102
}
330
4F
100
AcDbEntity
  8
1
  6
Continuous
 62
     7
100
AcDbLine
 10
618.5417858684547
 20
17.49999999999993
 30
0.0
 11
618.5417858684547
 21
14.30826907060172
 31
0.0
  0
LINE
  5
72
102
{ACAD_REACTORS
330
AE
102
}
330
4F
100
AcDbEntity
  8
1
  6
Continuous
 62
     7
100
AcDbLine
 10
619.2084525351213
 20
14.30826907060172
 30
0.0
 11
619.2084525351213
 21
20.73121731203451
 31
0.0
  0
LINE
  5
73
102
{ACAD_REACTORS
330
AE
102
}
330
4F
100
AcDbEntity
  8
1
  6
Continuous
 62
     7
100
AcDbLine
 10
618.7140188514979
 20
20.86370041827222
 30
0.0
 11
617.5417858684547
 21
18.83333333333319
 31
0.0
  0
LINE
  5
74
102
{ACAD_REACTORS
330
AF
102
}
330
4F
100
AcDbEntity
  8
1
  6
Continuous
 62
     7
100
AcDbLine
 10
614.5417858684547
 20
15.27002114803251
 30
0.0
 11
614.5417858684547
 21
19.9225001601673
 31
0.0
  0
LINE
  5
75
102
{ACAD_REACTORS
330
AF
102
}
330
4F
100
AcDbEntity
  8
1
  6
Continuous
 62
     7
100
AcDbLine
 10
615.2084525351213
 20
19.9225001601673
 30
0.0
 11
615.2084525351213
 21
15.27002114803263
 31
0.0
  0
LINE
  5
76
102
{ACAD_REACTORS
330
AF
102
}
330
4F
100
AcDbEntity
  8
1
  6
Continuous
 62
     7
100
AcDbLine
 10
615.2084525351213
 20
15.27002114803263
 30
0.0
 11
617.3750266862845
 21
14.02007452236153
 31
0.0
  0
LINE
  5
77
102
{ACAD_REACTORS
330
AF
102
}
330
4F
100
AcDbEntity
  8
1
  6
Continuous
 62
     7
100
AcDbLine
 10
617.0418783839581
 20
13.44261746499573
 30
0.0
 11
614.875304232795
 21
14.69256409066683
 31
0.0
  0
LINE
  5
78
102
{ACAD_REACTORS
330
B0
102
}
330
4F
100
AcDbEntity
  8
1
  6
Continuous
 62
     7
100
AcDbLine
 10
613.8751192017879
 20
19.15326939093659
 30
0.0
 11
613.8751192017879
 21
16.03925191726323
 31
0.0
  0
LINE
  5
79
102
{ACAD_REACTORS
330
B0
102
}
330
4F
100
AcDbEntity
  8
1
  6
Continuous
 62
     7
100
AcDbLine
 10
613.8751192017879
 20
16.03925191726323
 30
0.0
 11
613.8751192017879
 21
15.84673060906316
 31
0.0
  0
LINE
  5
7A
102
{ACAD_REACTORS
330
B0
102
}
330
4F
100
AcDbEntity
  8
1
  6
Continuous
 62
     7
100
AcDbLine
 10
613.2084525351213
 20
15.84673060906316
 30
0.0
 11
613.2084525351213
 21
19.15326939093659
 31
0.0
  0
LINE
  5
7B
102
{ACAD_REACTORS
330
B1
102
}
330
4F
100
AcDbEntity
  8
1
  6
Continuous
 62
     7
100
AcDbLine
 10
620.3750266862845
 20
20.2112286888502
 30
0.0
 11
621.7083600196178
 21
19.44199791961937
 31
0.0
  0
LINE
  5
7C
102
{ACAD_REACTORS
330
B1
102
}
330
4F
100
AcDbEntity
  8
1
  6
Continuous
 62
     7
100
AcDbLine
 10
621.3752117172914
 20
18.86454086225369
 30
0.0
 11
620.5417858684547
 21
19.34536346735188
 31
0.0
  0
LINE
  5
7D
102
{ACAD_REACTORS
330
B1
102
}
330
4F
100
AcDbEntity
  8
1
  6
Continuous
 62
     7
100
AcDbLine
 10
620.5417858684547
 20
19.34536346735188
 30
0.0
 11
620.5417858684547
 21
17.83333333333319
 31
0.0
  0
LINE
  5
7E
102
{ACAD_REACTORS
330
B1
102
}
330
4F
100
AcDbEntity
  8
1
  6
Continuous
 62
     7
100
AcDbLine
 10
620.5417858684547
 20
17.83333333333319
 30
0.0
 11
621.5417858684547
 21
17.83333333333319
 31
0.0
  0
LINE
  5
7F
102
{ACAD_REACTORS
330
B1
102
}
330
4F
100
AcDbEntity
  8
1
  6
Continuous
 62
     7
100
AcDbLine
 10
621.5417858684547
 20
17.16666666666656
 30
0.0
 11
620.5417858684547
 21
17.16666666666656
 31
0.0
  0
LINE
  5
80
102
{ACAD_REACTORS
330
B1
102
}
330
4F
100
AcDbEntity
  8
1
  6
Continuous
 62
     7
100
AcDbLine
 10
620.5417858684547
 20
17.16666666666656
 30
0.0
 11
620.5417858684547
 21
15.65463653264787
 31
0.0
  0
LINE
  5
81
102
{ACAD_REACTORS
330
B1
102
}
330
4F
100
AcDbEntity
  8
1
  6
Continuous
 62
     7
100
AcDbLine
 10
620.5417858684547
 20
15.65463653264787
 30
0.0
 11
621.3752117172914
 21
16.13545913774617
 31
0.0
  0
LINE
  5
82
102
{ACAD_REACTORS
330
B1
102
}
330
4F
100
AcDbEntity
  8
1
  6
Continuous
 62
     7
100
AcDbLine
 10
621.7083600196178
 20
15.55800208038026
 30
0.0
 11
620.3750266862845
 21
14.78877131114966
 31
0.0
  0
LINE
  5
83
330
4F
100
AcDbEntity
  8
1
  6
Continuous
 62
     7
100
AcDbLine
 10
446.865485179712
 20
29.99999999999992
 30
0.0
 11
630.865485179712
 21
29.99999999999992
 31
0.0
  0
LINE
  5
84
330
4F
100
AcDbEntity
  8
1
  6
Continuous
 62
     7
100
AcDbLine
 10
453.865485179712
 20
24.99999999999993
 30
0.0
 11
453.865485179712
 21
29.99999999999992
 31
0.0
  0
LINE
  5
85
330
4F
100
AcDbEntity
  8
1
  6
Continuous
 62
     7
100
AcDbLine
 10
471.8654851797121
 20
24.99999999999993
 30
0.0
 11
471.8654851797121
 21
29.99999999999992
 31
0.0
  0
LINE
  5
86
330
4F
100
AcDbEntity
  8
1
  6
Continuous
 62
     7
100
AcDbLine
 10
446.865485179712
 20
34.99999999999992
 30
0.0
 11
630.865485179712
 21
34.99999999999992
 31
0.0
  0
LINE
  5
87
330
4F
100
AcDbEntity
  8
1
  6
Continuous
 62
     7
100
AcDbLine
 10
453.865485179712
 20
29.99999999999992
 30
0.0
 11
453.865485179712
 21
34.99999999999992
 31
0.0
  0
LINE
  5
88
330
4F
100
AcDbEntity
  8
1
  6
Continuous
 62
     7
100
AcDbLine
 10
471.8654851797121
 20
29.99999999999992
 30
0.0
 11
471.8654851797121
 21
34.99999999999992
 31
0.0
  0
LINE
  5
89
330
4F
100
AcDbEntity
  8
1
  6
Continuous
 62
     7
100
AcDbLine
 10
446.865485179712
 20
39.99999999999992
 30
0.0
 11
630.865485179712
 21
39.99999999999992
 31
0.0
  0
LINE
  5
8A
330
4F
100
AcDbEntity
  8
1
  6
Continuous
 62
     7
100
AcDbLine
 10
453.865485179712
 20
34.99999999999992
 30
0.0
 11
453.865485179712
 21
39.99999999999992
 31
0.0
  0
LINE
  5
8B
330
4F
100
AcDbEntity
  8
1
  6
Continuous
 62
     7
100
AcDbLine
 10
471.8654851797121
 20
34.99999999999992
 30
0.0
 11
471.8654851797121
 21
39.99999999999992
 31
0.0
  0
LINE
  5
8C
330
4F
100
AcDbEntity
  8
1
  6
Continuous
 62
     7
100
AcDbLine
 10
446.865485179712
 20
44.99999999999992
 30
0.0
 11
630.865485179712
 21
44.99999999999992
 31
0.0
  0
LINE
  5
8D
330
4F
100
AcDbEntity
  8
1
  6
Continuous
 62
     7
100
AcDbLine
 10
453.865485179712
 20
39.99999999999992
 30
0.0
 11
453.865485179712
 21
44.99999999999992
 31
0.0
  0
LINE
  5
8E
330
4F
100
AcDbEntity
  8
1
  6
Continuous
 62
     7
100
AcDbLine
 10
471.8654851797121
 20
39.99999999999992
 30
0.0
 11
471.8654851797121
 21
44.99999999999992
 31
0.0
  0
LINE
  5
8F
330
4F
100
AcDbEntity
  8
1
  6
Continuous
 62
     7
100
AcDbLine
 10
343.8654851797118
 20
193.9999999999999
 30
0.0
 11
343.8654851797118
 21
9.99999999999993
 31
0.0
  0
LINE
  5
90
330
4F
100
AcDbEntity
  8
1
  6
Continuous
 62
     7
100
AcDbLine
 10
446.865485179712
 20
24.99999999999993
 30
0.0
 11
630.865485179712
 21
24.99999999999993
 31
0.0
  0
LINE
  5
91
330
4F
100
AcDbEntity
  8
1
  6
Continuous
 62
     7
100
AcDbLine
 10
446.865485179712
 20
9.99999999999981
 30
0.0
 11
446.865485179712
 21
44.99999999999992
 31
0.0
  0
ARC
  5
92
102
{ACAD_REACTORS
330
AE
102
}
330
4F
100
AcDbEntity
  8
1
  6
Continuous
 62
     7
100
AcDbCircle
 10
616.1400854142632
 20
20.73121731203451
 30
0.0
 40
0.2649662124753301
100
AcDbArc
 50
30.0000000000114
 51
180.0
  0
ARC
  5
93
102
{ACAD_REACTORS
330
AE
102
}
330
4F
100
AcDbEntity
  8
1
  6
Continuous
 62
     7
100
AcDbCircle
 10
616.2084525351213
 20
15.84758507263284
 30
0.0
 40
0.3333333333333712
100
AcDbArc
 50
180.0
 51
0.0
  0
ARC
  5
94
102
{ACAD_REACTORS
330
AE
102
}
330
4F
100
AcDbEntity
  8
1
  6
Continuous
 62
     7
100
AcDbCircle
 10
618.875119201788
 20
14.30826907060172
 30
0.0
 40
0.3333333333333712
100
AcDbArc
 50
180.0
 51
0.0
  0
ARC
  5
95
102
{ACAD_REACTORS
330
AE
102
}
330
4F
100
AcDbEntity
  8
1
  6
Continuous
 62
     7
100
AcDbCircle
 10
618.943486322646
 20
20.73121731203451
 30
0.0
 40
0.2649662124753149
100
AcDbArc
 50
0.0
 51
149.9999999999763
  0
ARC
  5
96
102
{ACAD_REACTORS
330
AF
102
}
330
4F
100
AcDbEntity
  8
1
  6
Continuous
 62
     7
100
AcDbCircle
 10
614.8751192017879
 20
19.9225001601673
 30
0.0
 40
0.3333333333333712
100
AcDbArc
 50
0.0
 51
180.0
  0
ARC
  5
97
102
{ACAD_REACTORS
330
AF
102
}
330
4F
100
AcDbEntity
  8
1
  6
Continuous
 62
     7
100
AcDbCircle
 10
617.2084525351213
 20
13.73134599367863
 30
0.0
 40
0.3333333333333755
100
AcDbArc
 50
240.0183606311498
 51
60.01836063114968
  0
ARC
  5
98
102
{ACAD_REACTORS
330
B0
102
}
330
4F
100
AcDbEntity
  8
1
  6
Continuous
 62
     7
100
AcDbCircle
 10
613.5417858684547
 20
19.15326939093659
 30
0.0
 40
0.3333333333332575
100
AcDbArc
 50
0.0
 51
180.0
  0
ARC
  5
99
102
{ACAD_REACTORS
330
B0
102
}
330
4F
100
AcDbEntity
  8
1
  6
Continuous
 62
     7
100
AcDbCircle
 10
613.5417858684547
 20
15.84673060906316
 30
0.0
 40
0.3333333333333712
100
AcDbArc
 50
180.0
 51
0.0
  0
ARC
  5
9A
102
{ACAD_REACTORS
330
B1
102
}
330
4F
100
AcDbEntity
  8
1
  6
Continuous
 62
     7
100
AcDbCircle
 10
621.5417858684547
 20
19.15326939093659
 30
0.0
 40
0.333333333333374
100
AcDbArc
 50
240.0183606311496
 51
60.01836063115653
  0
ARC
  5
9B
102
{ACAD_REACTORS
330
B1
102
}
330
4F
100
AcDbEntity
  8
1
  6
Continuous
 62
     7
100
AcDbCircle
 10
621.5417858684547
 20
17.49999999999993
 30
0.0
 40
0.3333333333333677
100
AcDbArc
 50
270.0
 51
90.0
  0
ARC
  5
9C
102
{ACAD_REACTORS
330
B1
102
}
330
4F
100
AcDbEntity
  8
1
  6
Continuous
 62
     7
100
AcDbCircle
 10
621.5417858684547
 20
15.84673060906316
 30
0.0
 40
0.3333333333333172
100
AcDbArc
 50
299.9816393688334
 51
119.9816393688407
  0
ARC
  5
9D
102
{ACAD_REACTORS
330
AE
102
}
330
4F
100
AcDbEntity
  8
1
  6
Continuous
 62
     7
100
AcDbCircle
 10
617.5417858684547
 20
17.83333333333319
 30
0.0
 40
0.1666666666667099
100
AcDbArc
 50
209.9999999999627
 51
330.0000000000177
  0
ARC
  5
9E
102
{ACAD_REACTORS
330
AF
102
}
330
4F
100
AcDbEntity
  8
1
  6
Continuous
 62
     7
100
AcDbCircle
 10
615.2084525351213
 20
15.27002114803263
 30
0.0
 40
0.6666666666666288
100
AcDbArc
 50
180.0000000000102
 51
240.0183606311582
  0
ARC
  5
9F
330
4F
100
AcDbEntity
  8
1
  6
Continuous
 62
     7
100
AcDbCircle
 10
609.2086376688948
 20
17.49999999999993
 30
0.0
 40
0.1666666666666123
100
AcDbArc
 50
119.9816393688877
 51
240.0183606311312
  0
ARC
  5
A0
330
4F
100
AcDbEntity
  8
1
  6
Continuous
 62
     7
100
AcDbCircle
 10
625.8749340680146
 20
17.49999999999993
 30
0.0
 40
0.1666666666666509
100
AcDbArc
 50
299.9816393688349
 51
60.01836063114615
  0
ARC
  5
A1
102
{ACAD_REACTORS
330
B1
102
}
330
4F
100
AcDbEntity
  8
1
  6
Continuous
 62
     7
100
AcDbCircle
 10
620.2084525351213
 20
19.9225001601673
 30
0.0
 40
0.333333333333374
100
AcDbArc
 50
60.01836063114968
 51
180.0
  0
ARC
  5
A2
102
{ACAD_REACTORS
330
B1
102
}
330
4F
100
AcDbEntity
  8
1
  6
Continuous
 62
     7
100
AcDbCircle
 10
620.2084525351213
 20
15.07749983983256
 30
0.0
 40
0.3333333333332575
100
AcDbArc
 50
180.0
 51
299.9816393688502
  0
MTEXT
  5
A4
330
4F
100
AcDbEntity
  8
1
 62
     7
100
AcDbMText
 10
458.465485179712
 20
12.4999999999998
 30
0.0
 40
3.0
 41
0.0
 71
     4
 72
     1
  1
Radice
  7
CONVERTER_11
 73
     1
 44
1.32052821128451
  0
MTEXT
  5
A5
330
4F
100
AcDbEntity
  8
1
 62
     7
100
AcDbMText
 10
447.865485179712
 20
12.4999999999998
 30
0.0
 40
3.0
 41
0.0
 71
     4
 72
     1
  1
Sign.
  7
CONVERTER_11
 73
     1
 44
1.32052821128451
  0
MTEXT
  5
A6
330
4F
100
AcDbEntity
  8
1
 62
     7
100
AcDbMText
 10
458.465485179712
 20
17.49999999999981
 30
0.0
 40
3.0
 41
0.0
 71
     4
 72
     1
  1
26/03/14
  7
CONVERTER_11
 73
     1
 44
1.32052821128451
  0
MTEXT
  5
A7
330
4F
100
AcDbEntity
  8
1
 62
     7
100
AcDbMText
 10
447.865485179712
 20
17.49999999999981
 30
0.0
 40
3.0
 41
0.0
 71
     4
 72
     1
  1
Date
  7
CONVERTER_11
 73
     1
 44
1.32052821128451
  0
MTEXT
  5
A9
330
4F
100
AcDbEntity
  8
1
 62
     7
100
AcDbMText
 10
461.865485179712
 20
22.49999999999988
 30
0.0
 40
2.5
 41
0.0
 71
     5
 72
     1
  1
dimensions in mm
  7
CONVERTER_12
 73
     1
 44
0.60024009603842
  0
MTEXT
  5
AA
330
4F
100
AcDbEntity
  8
1
 62
     7
100
AcDbMText
 10
490.3654851797116
 20
199.0
 30
0.0
 40
4.0
 41
0.0
 71
     5
 72
     1
  1
Diritti riservati      All rights reserved
  7
CONVERTER_11
 73
     1
 44
1.32052821128451
  0
MTEXT
  5
AB
330
4F
100
AcDbEntity
  8
1
 62
     7
100
AcDbMText
 10
483.1417858684547
 20
17.49999999999993
 30
0.0
 40
4.5
 41
0.0
 71
     4
 72
     1
  1
JCVP 16\PSurface mounting housing, 2 levers, PG21 - JEI
  7
CONVERTER_11
 73
     1
 44
0.90036014405762
  0
MTEXT
  5
AC
330
4F
100
AcDbEntity
  8
1
 62
     7
100
AcDbMText
 10
595.5417858684547
 20
21.26063942075591
 30
0.0
 40
3.0
 41
0.0
 71
     5
 72
     1
  1
Scale
  7
CONVERTER_11
 73
     1
 44
1.32052821128451
  0
MTEXT
  5
AD
330
4F
100
AcDbEntity
  8
1
 62
     7
100
AcDbMText
 10
595.5417858684547
 20
15.06063942075598
 30
0.0
 40
4.5
 41
0.0
 71
     5
 72
     1
  1
1:1
  7
CONVERTER_11
 73
     1
 44
1.32052821128451
  0
HATCH
  5
AE
330
4F
100
AcDbEntity
  8
1
  6
Continuous
 62
     7
100
AcDbHatch
 10
0.0
 20
0.0
 30
0.0
210
0.0
220
0.0
230
1.0
  2
SOLID
 70
     1
 71
     1
 91
        1
 92
        1
 93
       16
 72
     2
 10
616.1400854142632
 20
20.73121731203451
 40
0.2649662124753301
 50
30.0000000000114
 51
180.0
 73
     1
 72
     1
 10
615.8751192017879
 20
20.73121731203451
 11
615.8751192017879
 21
17.49999999999993
 72
     1
 10
615.8751192017879
 20
17.49999999999993
 11
615.8751192017879
 21
15.84758507263284
 72
     2
 10
616.2084525351213
 20
15.84758507263284
 40
0.3333333333333712
 50
180.0
 51
360.0
 73
     1
 72
     1
 10
616.5417858684547
 20
15.84758507263284
 11
616.5417858684547
 21
17.49999999999993
 72
     1
 10
616.5417858684547
 20
17.49999999999993
 11
616.5417858684547
 21
19.23205080756877
 72
     1
 10
616.5417858684547
 20
19.23205080756877
 11
617.3974483011572
 21
17.74999999999993
 72
     2
 10
617.5417858684547
 20
17.83333333333319
 40
0.1666666666667099
 50
209.9999999999627
 51
330.0000000000177
 73
     1
 72
     1
 10
617.686123435752
 20
17.74999999999993
 11
618.5417858684547
 21
19.23205080756877
 72
     1
 10
618.5417858684547
 20
19.23205080756877
 11
618.5417858684547
 21
17.49999999999993
 72
     1
 10
618.5417858684547
 20
17.49999999999993
 11
618.5417858684547
 21
14.30826907060172
 72
     2
 10
618.875119201788
 20
14.30826907060172
 40
0.3333333333333712
 50
180.0
 51
360.0
 73
     1
 72
     1
 10
619.2084525351213
 20
14.30826907060172
 11
619.2084525351213
 21
20.73121731203451
 72
     2
 10
618.943486322646
 20
20.73121731203451
 40
0.2649662124753149
 50
0.0
 51
149.9999999999763
 73
     1
 72
     1
 10
618.7140188514979
 20
20.86370041827222
 11
617.5417858684547
 21
18.83333333333319
 72
     1
 10
617.5417858684547
 20
18.83333333333319
 11
616.3695528854114
 21
20.86370041827222
 97
       16
330
73
330
95
330
72
330
94
330
71
330
65
330
66
330
9D
330
67
330
68
330
70
330
93
330
6F
330
6D
330
92
330
6E
 75
     0
 76
     1
 98
        1
 10
0.0
 20
0.0
  0
HATCH
  5
AF
330
4F
100
AcDbEntity
  8
1
  6
Continuous
 62
     7
100
AcDbHatch
 10
0.0
 20
0.0
 30
0.0
210
0.0
220
0.0
230
1.0
  2
SOLID
 70
     1
 71
     1
 91
        1
 92
        1
 93
        7
 72
     1
 10
615.2084525351213
 20
19.9225001601673
 11
615.2084525351213
 21
15.27002114803263
 72
     1
 10
615.2084525351213
 20
15.27002114803263
 11
617.3750266862845
 21
14.02007452236153
 72
     2
 10
617.2084525351213
 20
13.73134599367863
 40
0.3333333333333755
 50
299.9816393688503
 51
479.9816393688502
 73
     0
 72
     1
 10
617.0418783839581
 20
13.44261746499573
 11
614.875304232795
 21
14.69256409066683
 72
     2
 10
615.2084525351213
 20
15.27002114803263
 40
0.6666666666666288
 50
119.9816393688418
 51
179.9999999999898
 73
     0
 72
     1
 10
614.5417858684547
 20
15.27002114803251
 11
614.5417858684547
 21
19.9225001601673
 72
     2
 10
614.8751192017879
 20
19.9225001601673
 40
0.3333333333333712
 50
180.0
 51
360.0
 73
     0
 97
        7
330
75
330
76
330
97
330
77
330
9E
330
74
330
96
 75
     0
 76
     1
 98
        1
 10
0.0
 20
0.0
  0
HATCH
  5
B0
330
4F
100
AcDbEntity
  8
1
  6
Continuous
 62
     7
100
AcDbHatch
 10
0.0
 20
0.0
 30
0.0
210
0.0
220
0.0
230
1.0
  2
SOLID
 70
     1
 71
     1
 91
        1
 92
        1
 93
        5
 72
     1
 10
613.8751192017879
 20
19.15326939093659
 11
613.8751192017879
 21
16.03925191726323
 72
     1
 10
613.8751192017879
 20
16.03925191726323
 11
613.8751192017879
 21
15.84673060906316
 72
     2
 10
613.5417858684547
 20
15.84673060906316
 40
0.3333333333333712
 50
0.0
 51
180.0
 73
     0
 72
     1
 10
613.2084525351213
 20
15.84673060906316
 11
613.2084525351213
 21
19.15326939093659
 72
     2
 10
613.5417858684547
 20
19.15326939093659
 40
0.3333333333332575
 50
180.0
 51
360.0
 73
     0
 97
        5
330
78
330
79
330
99
330
7A
330
98
 75
     0
 76
     1
 98
        1
 10
0.0
 20
0.0
  0
HATCH
  5
B1
330
4F
100
AcDbEntity
  8
1
  6
Continuous
 62
     7
100
AcDbHatch
 10
0.0
 20
0.0
 30
0.0
210
0.0
220
0.0
230
1.0
  2
SOLID
 70
     1
 71
     1
 91
        1
 92
        1
 93
       14
 72
     1
 10
621.3752117172914
 20
18.86454086225369
 11
620.5417858684547
 21
19.34536346735188
 72
     1
 10
620.5417858684547
 20
19.34536346735188
 11
620.5417858684547
 21
17.83333333333319
 72
     1
 10
620.5417858684547
 20
17.83333333333319
 11
621.5417858684547
 21
17.83333333333319
 72
     2
 10
621.5417858684547
 20
17.49999999999993
 40
0.3333333333333677
 50
270.0
 51
450.0
 73
     0
 72
     1
 10
621.5417858684547
 20
17.16666666666656
 11
620.5417858684547
 21
17.16666666666656
 72
     1
 10
620.5417858684547
 20
17.16666666666656
 11
620.5417858684547
 21
15.65463653264787
 72
     1
 10
620.5417858684547
 20
15.65463653264787
 11
621.3752117172914
 21
16.13545913774617
 72
     2
 10
621.5417858684547
 20
15.84673060906316
 40
0.3333333333333172
 50
240.0183606311593
 51
420.0183606311667
 73
     0
 72
     1
 10
621.7083600196178
 20
15.55800208038026
 11
620.3750266862845
 21
14.78877131114966
 72
     2
 10
620.2084525351213
 20
15.07749983983256
 40
0.3333333333332575
 50
60.01836063114984
 51
180.0
 73
     0
 72
     1
 10
619.875119201788
 20
15.07749983983256
 11
619.875119201788
 21
19.9225001601673
 72
     2
 10
620.2084525351213
 20
19.9225001601673
 40
0.333333333333374
 50
180.0
 51
299.9816393688503
 73
     0
 72
     1
 10
620.3750266862845
 20
20.2112286888502
 11
621.7083600196178
 21
19.44199791961937
 72
     2
 10
621.5417858684547
 20
19.15326939093659
 40
0.333333333333374
 50
299.9816393688434
 51
479.9816393688503
 73
     0
 97
       14
330
7B
330
A1
330
64
330
A2
330
82
330
9C
330
81
330
80
330
7F
330
9B
330
7E
330
7D
330
7C
330
9A
 75
     0
 76
     1
 98
        1
 10
0.0
 20
0.0
  0
ENDBLK
  5
51
330
4F
100
AcDbEntity
  8
0
100
AcDbBlockEnd
  0
BLOCK
  5
54
330
52
100
AcDbEntity
  8
0
100
AcDbBlockBegin
  2
A4_oriz
 70
     0
 10
635.865485179712
 20
4.99999999999993
 30
0.0
  3
A4_oriz
  1

  0
INSERT
  5
53
330
52
100
AcDbEntity
  8
1
100
AcDbBlockReference
  2
_formato_A4
 10
635.865485179712
 20
4.99999999999993
 30
0.0
  0
ENDBLK
  5
55
330
52
100
AcDbEntity
  8
0
100
AcDbBlockEnd
  0
BLOCK
  5
72C
330
725
100
AcDbEntity
  8
0
100
AcDbBlockBegin
  2
*D3
 70
     1
 10
0.0
 20
0.0
 30
0.0
  3
*D3
  1

  0
LINE
  5
726
330
725
100
AcDbEntity
  8
Bemaßungen_TC_020513_DIN_
  6
Continuous
 62
     7
100
AcDbLine
 10
508.0831783492592
 20
87.4779508445251
 30
0.0
 11
508.0831783492592
 21
116.5819508445251
 31
0.0
  0
LINE
  5
727
330
725
100
AcDbEntity
  8
Bemaßungen_TC_020513_DIN_
  6
Continuous
 62
     7
100
AcDbLine
 10
494.0831783492592
 20
116.5819508445251
 30
0.0
 11
510.0831783492592
 21
116.5819508445251
 31
0.0
  0
LINE
  5
728
330
725
100
AcDbEntity
  8
Bemaßungen_TC_020513_DIN_
  6
Continuous
 62
     7
100
AcDbLine
 10
494.0831783492592
 20
87.4779508445251
 30
0.0
 11
510.0831783492592
 21
87.4779508445251
 31
0.0
  0
SOLID
  5
729
330
725
100
AcDbEntity
  8
Bemaßungen_TC_020513_DIN_
 62
     7
100
AcDbTrace
 10
508.4123095932277
 20
114.0819508445251
 30
0.0
 11
507.7540471052907
 21
114.0819508445251
 31
0.0
 12
508.0831783492592
 22
116.5819508445251
 32
0.0
 13
508.0831783492592
 23
116.5819508445251
 33
0.0
  0
SOLID
  5
72A
330
725
100
AcDbEntity
  8
Bemaßungen_TC_020513_DIN_
 62
     7
100
AcDbTrace
 10
507.7540471052907
 20
89.9779508445251
 30
0.0
 11
508.4123095932277
 21
89.9779508445251
 31
0.0
 12
508.0831783492592
 22
87.4779508445251
 32
0.0
 13
508.0831783492592
 23
87.4779508445251
 33
0.0
  0
MTEXT
  5
72B
330
725
100
AcDbEntity
  8
Bemaßungen_TC_020513_DIN_
 62
     7
100
AcDbMText
 10
505.074253668434
 20
98.26246903461153
 30
0.0
 40
3.5
 41
0.0
 71
     7
 72
     1
  1
PG21
  7
CONVERTER_13
 11
0.0
 21
1.0
 31
0.0
 73
     1
 44
0.45454545454545
  0
ENDBLK
  5
72D
330
725
100
AcDbEntity
  8
0
100
AcDbBlockEnd
  0
BLOCK
  5
737
330
730
100
AcDbEntity
  8
0
100
AcDbBlockBegin
  2
*D4
 70
     1
 10
0.0
 20
0.0
 30
0.0
  3
*D4
  1

  0
LINE
  5
731
330
730
100
AcDbEntity
  8
Bemaßungen_TC_020513_DIN_
  6
Continuous
 62
     7
100
AcDbLine
 10
504.5171283209756
 20
173.6399508445251
 30
0.0
 11
364.6492283775434
 21
173.6399508445251
 31
0.0
  0
LINE
  5
732
330
730
100
AcDbEntity
  8
Bemaßungen_TC_020513_DIN_
  6
Continuous
 62
     7
100
AcDbLine
 10
364.6492283775434
 20
128.6399508445251
 30
0.0
 11
364.6492283775434
 21
175.6399508445251
 31
0.0
  0
LINE
  5
733
330
730
100
AcDbEntity
  8
Bemaßungen_TC_020513_DIN_
  6
Continuous
 62
     7
100
AcDbLine
 10
504.5171283209756
 20
128.6399508445251
 30
0.0
 11
504.5171283209756
 21
175.6399508445251
 31
0.0
  0
SOLID
  5
734
330
730
100
AcDbEntity
  8
Bemaßungen_TC_020513_DIN_
 62
     7
100
AcDbTrace
 10
367.1492283775434
 20
173.9690820884936
 30
0.0
 11
367.1492283775434
 21
173.3108196005566
 31
0.0
 12
364.6492283775434
 22
173.6399508445251
 32
0.0
 13
364.6492283775434
 23
173.6399508445251
 33
0.0
  0
SOLID
  5
735
330
730
100
AcDbEntity
  8
Bemaßungen_TC_020513_DIN_
 62
     7
100
AcDbTrace
 10
502.0171283209756
 20
173.3108196005566
 30
0.0
 11
502.0171283209756
 21
173.9690820884936
 31
0.0
 12
504.5171283209756
 22
173.6399508445251
 32
0.0
 13
504.5171283209756
 23
173.6399508445251
 33
0.0
  0
MTEXT
  5
736
330
730
100
AcDbEntity
  8
Bemaßungen_TC_020513_DIN_
 62
     7
100
AcDbMText
 10
432.9757408776816
 20
176.629633400368
 30
0.0
 40
3.5
 41
0.0
 71
     7
 72
     1
  1
140
  7
CONVERTER_13
 11
0.9999999999970619
 21
2.424068405545306E-6
 31
0.0
 73
     1
 44
0.45454545454545
  0
ENDBLK
  5
738
330
730
100
AcDbEntity
  8
0
100
AcDbBlockEnd
  0
BLOCK
  5
742
330
73B
100
AcDbEntity
  8
0
100
AcDbBlockBegin
  2
*D5
 70
     1
 10
0.0
 20
0.0
 30
0.0
  3
*D5
  1

  0
LINE
  5
73C
330
73B
100
AcDbEntity
  8
Bemaßungen_TC_020513_DIN_
  6
Continuous
 62
     7
100
AcDbLine
 10
554.8665876894121
 20
173.6399508445254
 30
0.0
 11
611.8665876894121
 21
173.6399508445254
 31
0.0
  0
LINE
  5
73D
330
73B
100
AcDbEntity
  8
Bemaßungen_TC_020513_DIN_
  6
Continuous
 62
     7
100
AcDbLine
 10
611.8665876894121
 20
139.6399508445254
 30
0.0
 11
611.8665876894121
 21
175.6399508445254
 31
0.0
  0
LINE
  5
73E
330
73B
100
AcDbEntity
  8
Bemaßungen_TC_020513_DIN_
  6
Continuous
 62
     7
100
AcDbLine
 10
554.8665876894121
 20
139.6399508445254
 30
0.0
 11
554.8665876894121
 21
175.6399508445254
 31
0.0
  0
SOLID
  5
73F
330
73B
100
AcDbEntity
  8
Bemaßungen_TC_020513_DIN_
 62
     7
100
AcDbTrace
 10
609.3665876894121
 20
173.310819600557
 30
0.0
 11
609.3665876894121
 21
173.9690820884939
 31
0.0
 12
611.8665876894121
 22
173.6399508445254
 32
0.0
 13
611.8665876894121
 23
173.6399508445254
 33
0.0
  0
SOLID
  5
740
330
73B
100
AcDbEntity
  8
Bemaßungen_TC_020513_DIN_
 62
     7
100
AcDbTrace
 10
557.3665876894121
 20
173.9690820884939
 30
0.0
 11
557.3665876894121
 21
173.310819600557
 31
0.0
 12
554.8665876894121
 22
173.6399508445254
 32
0.0
 13
554.8665876894121
 23
173.6399508445254
 33
0.0
  0
MTEXT
  5
741
330
73B
100
AcDbEntity
  8
Bemaßungen_TC_020513_DIN_
 62
     7
100
AcDbMText
 10
582.2714330736776
 20
176.6327216426494
 30
0.0
 40
3.5
 41
0.0
 71
     7
 72
     1
  1
57
  7
CONVERTER_13
 11
0.9999999999970619
 21
2.424068405545306E-6
 31
0.0
 73
     1
 44
0.45454545454545
  0
ENDBLK
  5
743
330
73B
100
AcDbEntity
  8
0
100
AcDbBlockEnd
  0
BLOCK
  5
74D
330
746
100
AcDbEntity
  8
0
100
AcDbBlockBegin
  2
*D6
 70
     1
 10
0.0
 20
0.0
 30
0.0
  3
*D6
  1

  0
LINE
  5
747
330
746
100
AcDbEntity
  8
Bemaßungen_TC_020513_DIN_
  6
Continuous
 62
     7
100
AcDbLine
 10
487.0831783492595
 20
68.63995084452515
 30
0.0
 11
382.0831783492595
 21
68.63995084452515
 31
0.0
  0
LINE
  5
748
330
746
100
AcDbEntity
  8
Bemaßungen_TC_020513_DIN_
  6
Continuous
 62
     7
100
AcDbLine
 10
382.0831783492595
 20
83.6399508445251
 30
0.0
 11
382.0831783492595
 21
66.63995084452515
 31
0.0
  0
LINE
  5
749
330
746
100
AcDbEntity
  8
Bemaßungen_TC_020513_DIN_
  6
Continuous
 62
     7
100
AcDbLine
 10
487.0831783492595
 20
83.6399508445251
 30
0.0
 11
487.0831783492595
 21
66.63995084452515
 31
0.0
  0
SOLID
  5
74A
330
746
100
AcDbEntity
  8
Bemaßungen_TC_020513_DIN_
 62
     7
100
AcDbTrace
 10
384.5831783492595
 20
68.96908208849364
 30
0.0
 11
384.5831783492595
 21
68.31081960055666
 31
0.0
 12
382.0831783492595
 22
68.63995084452515
 32
0.0
 13
382.0831783492595
 23
68.63995084452515
 33
0.0
  0
SOLID
  5
74B
330
746
100
AcDbEntity
  8
Bemaßungen_TC_020513_DIN_
 62
     7
100
AcDbTrace
 10
484.5831783492595
 20
68.31081960055666
 30
0.0
 11
484.5831783492595
 21
68.96908208849364
 31
0.0
 12
487.0831783492595
 22
68.63995084452515
 32
0.0
 13
487.0831783492595
 23
68.63995084452515
 33
0.0
  0
MTEXT
  5
74C
330
746
100
AcDbEntity
  8
Bemaßungen_TC_020513_DIN_
 62
     7
100
AcDbMText
 10
432.9566412869585
 20
71.62963340036804
 30
0.0
 40
3.5
 41
0.0
 71
     7
 72
     1
  1
105
  7
CONVERTER_13
 11
0.9999999999970619
 21
2.424068405545306E-6
 31
0.0
 73
     1
 44
0.45454545454545
  0
ENDBLK
  5
74E
330
746
100
AcDbEntity
  8
0
100
AcDbBlockEnd
  0
BLOCK
  5
758
330
751
100
AcDbEntity
  8
0
100
AcDbBlockBegin
  2
*D7
 70
     1
 10
0.0
 20
0.0
 30
0.0
  3
*D7
  1

  0
LINE
  5
752
330
751
100
AcDbEntity
  8
Bemaßungen_TC_020513_DIN_
  6
Continuous
 62
     7
100
AcDbLine
 10
493.0831783492594
 20
58.8342543808874
 30
0.0
 11
376.0831783492594
 21
58.8342543808874
 31
0.0
  0
LINE
  5
753
330
751
100
AcDbEntity
  8
Bemaßungen_TC_020513_DIN_
  6
Continuous
 62
     7
100
AcDbLine
 10
376.0831783492594
 20
83.6399508445251
 30
0.0
 11
376.0831783492594
 21
56.8342543808874
 31
0.0
  0
LINE
  5
754
330
751
100
AcDbEntity
  8
Bemaßungen_TC_020513_DIN_
  6
Continuous
 62
     7
100
AcDbLine
 10
493.0831783492594
 20
83.6399508445251
 30
0.0
 11
493.0831783492594
 21
56.8342543808874
 31
0.0
  0
SOLID
  5
755
330
751
100
AcDbEntity
  8
Bemaßungen_TC_020513_DIN_
 62
     7
100
AcDbTrace
 10
378.5831783492594
 20
59.16338562485589
 30
0.0
 11
378.5831783492594
 21
58.50512313691891
 31
0.0
 12
376.0831783492594
 22
58.8342543808874
 32
0.0
 13
376.0831783492594
 23
58.8342543808874
 33
0.0
  0
SOLID
  5
756
330
751
100
AcDbEntity
  8
Bemaßungen_TC_020513_DIN_
 62
     7
100
AcDbTrace
 10
490.5831783492594
 20
58.50512313691891
 30
0.0
 11
490.5831783492594
 21
59.16338562485589
 31
0.0
 12
493.0831783492594
 22
58.8342543808874
 32
0.0
 13
493.0831783492594
 23
58.8342543808874
 33
0.0
  0
MTEXT
  5
757
330
751
100
AcDbEntity
  8
Bemaßungen_TC_020513_DIN_
 62
     7
100
AcDbMText
 10
432.9697722555804
 20
61.74683778039736
 30
0.0
 40
3.5
 41
0.0
 71
     7
 72
     1
  1
117
  7
CONVERTER_13
 11
0.9999999999970619
 21
2.424068405545306E-6
 31
0.0
 73
     1
 44
0.45454545454545
  0
ENDBLK
  5
759
330
751
100
AcDbEntity
  8
0
100
AcDbBlockEnd
  0
BLOCK
  5
763
330
75C
100
AcDbEntity
  8
0
100
AcDbBlockBegin
  2
*D8
 70
     1
 10
0.0
 20
0.0
 30
0.0
  3
*D8
  1

  0
LINE
  5
75D
330
75C
100
AcDbEntity
  8
Bemaßungen_TC_020513_DIN_
  6
Continuous
 62
     7
100
AcDbLine
 10
605.8665876894044
 20
68.63995084452516
 30
0.0
 11
560.8665876894045
 21
68.63995084452516
 31
0.0
  0
LINE
  5
75E
330
75C
100
AcDbEntity
  8
Bemaßungen_TC_020513_DIN_
  6
Continuous
 62
     7
100
AcDbLine
 10
560.8665876894045
 20
83.6399508445252
 30
0.0
 11
560.8665876894045
 21
66.63995084452516
 31
0.0
  0
LINE
  5
75F
330
75C
100
AcDbEntity
  8
Bemaßungen_TC_020513_DIN_
  6
Continuous
 62
     7
100
AcDbLine
 10
605.8665876894044
 20
83.6399508445252
 30
0.0
 11
605.8665876894044
 21
66.63995084452516
 31
0.0
  0
SOLID
  5
760
330
75C
100
AcDbEntity
  8
Bemaßungen_TC_020513_DIN_
 62
     7
100
AcDbTrace
 10
563.3665876894045
 20
68.96908208849365
 30
0.0
 11
563.3665876894045
 21
68.31081960055667
 31
0.0
 12
560.8665876894045
 22
68.63995084452516
 32
0.0
 13
560.8665876894045
 23
68.63995084452516
 33
0.0
  0
SOLID
  5
761
330
75C
100
AcDbEntity
  8
Bemaßungen_TC_020513_DIN_
 62
     7
100
AcDbTrace
 10
603.3665876894044
 20
68.31081960055667
 30
0.0
 11
603.3665876894044
 21
68.96908208849365
 31
0.0
 12
605.8665876894044
 22
68.63995084452516
 32
0.0
 13
605.8665876894044
 23
68.63995084452516
 33
0.0
  0
MTEXT
  5
762
330
75C
100
AcDbEntity
  8
Bemaßungen_TC_020513_DIN_
 62
     7
100
AcDbMText
 10
582.1878723642566
 20
71.62401517498743
 30
0.0
 40
3.5
 41
0.0
 71
     7
 72
     1
  1
45
  7
CONVERTER_13
 11
0.9999999999970619
 21
2.424068405545306E-6
 31
0.0
 73
     1
 44
0.45454545454545
  0
ENDBLK
  5
764
330
75C
100
AcDbEntity
  8
0
100
AcDbBlockEnd
  0
BLOCK
  5
76E
330
767
100
AcDbEntity
  8
0
100
AcDbBlockBegin
  2
*D9
 70
     1
 10
0.0
 20
0.0
 30
0.0
  3
*D9
  1

  0
LINE
  5
768
330
767
100
AcDbEntity
  8
Bemaßungen_TC_020513_DIN_
  6
Continuous
 62
     7
100
AcDbLine
 10
611.8665876894021
 20
58.83425438088744
 30
0.0
 11
554.8665876894021
 21
58.83425438088744
 31
0.0
  0
LINE
  5
769
330
767
100
AcDbEntity
  8
Bemaßungen_TC_020513_DIN_
  6
Continuous
 62
     7
100
AcDbLine
 10
554.8665876894021
 20
83.6399508445252
 30
0.0
 11
554.8665876894021
 21
56.83425438088744
 31
0.0
  0
LINE
  5
76A
330
767
100
AcDbEntity
  8
Bemaßungen_TC_020513_DIN_
  6
Continuous
 62
     7
100
AcDbLine
 10
611.8665876894021
 20
83.6399508445252
 30
0.0
 11
611.8665876894021
 21
56.83425438088744
 31
0.0
  0
SOLID
  5
76B
330
767
100
AcDbEntity
  8
Bemaßungen_TC_020513_DIN_
 62
     7
100
AcDbTrace
 10
557.3665876894021
 20
59.16338562485593
 30
0.0
 11
557.3665876894021
 21
58.50512313691895
 31
0.0
 12
554.8665876894021
 22
58.83425438088744
 32
0.0
 13
554.8665876894021
 23
58.83425438088744
 33
0.0
  0
SOLID
  5
76C
330
767
100
AcDbEntity
  8
Bemaßungen_TC_020513_DIN_
 62
     7
100
AcDbTrace
 10
609.3665876894021
 20
58.50512313691895
 30
0.0
 11
609.3665876894021
 21
59.16338562485593
 31
0.0
 12
611.8665876894021
 22
58.83425438088744
 32
0.0
 13
611.8665876894021
 23
58.83425438088744
 33
0.0
  0
MTEXT
  5
76D
330
767
100
AcDbEntity
  8
Bemaßungen_TC_020513_DIN_
 62
     7
100
AcDbMText
 10
582.2714330736676
 20
61.82702517901143
 30
0.0
 40
3.5
 41
0.0
 71
     7
 72
     1
  1
57
  7
CONVERTER_13
 11
0.9999999999970619
 21
2.424068405545306E-6
 31
0.0
 73
     1
 44
0.45454545454545
  0
ENDBLK
  5
76F
330
767
100
AcDbEntity
  8
0
100
AcDbBlockEnd
  0
BLOCK
  5
779
330
772
100
AcDbEntity
  8
0
100
AcDbBlockBegin
  2
*D10
 70
     1
 10
0.0
 20
0.0
 30
0.0
  3
*D10
  1

  0
LINE
  5
773
330
772
100
AcDbEntity
  8
Bemaßungen_TC_020513_DIN_
  6
Continuous
 62
     7
100
AcDbLine
 10
532.8665876894019
 20
163.6399508445254
 30
0.0
 11
532.8665876894019
 21
82.6399508445254
 31
0.0
  0
LINE
  5
774
330
772
100
AcDbEntity
  8
Bemaßungen_TC_020513_DIN_
  6
Continuous
 62
     7
100
AcDbLine
 10
553.866587689402
 20
82.6399508445254
 30
0.0
 11
530.8665876894019
 21
82.6399508445254
 31
0.0
  0
LINE
  5
775
330
772
100
AcDbEntity
  8
Bemaßungen_TC_020513_DIN_
  6
Continuous
 62
     7
100
AcDbLine
 10
558.5665876894083
 20
163.6399508445254
 30
0.0
 11
530.8665876894019
 21
163.6399508445254
 31
0.0
  0
SOLID
  5
776
330
772
100
AcDbEntity
  8
Bemaßungen_TC_020513_DIN_
 62
     7
100
AcDbTrace
 10
532.5374564454333
 20
85.1399508445254
 30
0.0
 11
533.1957189333704
 21
85.1399508445254
 31
0.0
 12
532.8665876894019
 22
82.6399508445254
 32
0.0
 13
532.8665876894019
 23
82.6399508445254
 33
0.0
  0
SOLID
  5
777
330
772
100
AcDbEntity
  8
Bemaßungen_TC_020513_DIN_
 62
     7
100
AcDbTrace
 10
533.1957189333704
 20
161.1399508445254
 30
0.0
 11
532.5374564454333
 21
161.1399508445254
 31
0.0
 12
532.8665876894019
 22
163.6399508445254
 32
0.0
 13
532.8665876894019
 23
163.6399508445254
 33
0.0
  0
MTEXT
  5
778
330
772
100
AcDbEntity
  8
Bemaßungen_TC_020513_DIN_
 62
     7
100
AcDbMText
 10
529.8769051335589
 20
122.5668994575313
 30
0.0
 40
3.5
 41
0.0
 71
     7
 72
     1
  1
81
  7
CONVERTER_13
 11
0.0
 21
1.0
 31
0.0
 73
     1
 44
0.45454545454545
  0
ENDBLK
  5
77A
330
772
100
AcDbEntity
  8
0
100
AcDbBlockEnd
  0
BLOCK
  5
784
330
77D
100
AcDbEntity
  8
0
100
AcDbBlockBegin
  2
*D11
 70
     1
 10
0.0
 20
0.0
 30
0.0
  3
*D11
  1

  0
LINE
  5
77E
330
77D
100
AcDbEntity
  8
Bemaßungen_TC_020513_DIN_
  6
Continuous
 62
     7
100
AcDbLine
 10
519.0831783492592
 20
82.6399508445256
 30
0.0
 11
519.0831783492592
 21
145.6399508445256
 31
0.0
  0
LINE
  5
77F
330
77D
100
AcDbEntity
  8
Bemaßungen_TC_020513_DIN_
  6
Continuous
 62
     7
100
AcDbLine
 10
479.2331783492592
 20
145.6399508445256
 30
0.0
 11
521.0831783492592
 21
145.6399508445256
 31
0.0
  0
LINE
  5
780
330
77D
100
AcDbEntity
  8
Bemaßungen_TC_020513_DIN_
  6
Continuous
 62
     7
100
AcDbLine
 10
480.0831783492592
 20
82.6399508445256
 30
0.0
 11
521.0831783492592
 21
82.6399508445256
 31
0.0
  0
SOLID
  5
781
330
77D
100
AcDbEntity
  8
Bemaßungen_TC_020513_DIN_
 62
     7
100
AcDbTrace
 10
519.4123095932277
 20
143.1399508445256
 30
0.0
 11
518.7540471052907
 21
143.1399508445256
 31
0.0
 12
519.0831783492592
 22
145.6399508445256
 32
0.0
 13
519.0831783492592
 23
145.6399508445256
 33
0.0
  0
SOLID
  5
782
330
77D
100
AcDbEntity
  8
Bemaßungen_TC_020513_DIN_
 62
     7
100
AcDbTrace
 10
518.7540471052907
 20
85.1399508445256
 30
0.0
 11
519.4123095932277
 21
85.1399508445256
 31
0.0
 12
519.0831783492592
 22
82.6399508445256
 32
0.0
 13
519.0831783492592
 23
82.6399508445256
 33
0.0
  0
MTEXT
  5
783
330
77D
100
AcDbEntity
  8
Bemaßungen_TC_020513_DIN_
 62
     7
100
AcDbMText
 10
516.0911083445759
 20
113.0352464334297
 30
0.0
 40
3.5
 41
0.0
 71
     7
 72
     1
  1
63
  7
CONVERTER_13
 11
0.0
 21
1.0
 31
0.0
 73
     1
 44
0.45454545454545
  0
ENDBLK
  5
785
330
77D
100
AcDbEntity
  8
0
100
AcDbBlockEnd
  0
BLOCK
  5
78F
330
788
100
AcDbEntity
  8
0
100
AcDbBlockBegin
  2
*D12
 70
     1
 10
0.0
 20
0.0
 30
0.0
  3
*D12
  1

  0
LINE
  5
789
330
788
100
AcDbEntity
  8
Bemaßungen_TC_020513_DIN_
  6
Continuous
 62
     7
100
AcDbLine
 10
544.866587689402
 20
91.63995084452513
 30
0.0
 11
544.866587689402
 21
77.63995084452513
 31
0.0
  0
LINE
  5
78A
330
788
100
AcDbEntity
  8
Bemaßungen_TC_020513_DIN_
  6
Continuous
 62
     7
100
AcDbLine
 10
553.866587689402
 20
82.63995084452513
 30
0.0
 11
542.866587689402
 21
82.63995084452513
 31
0.0
  0
LINE
  5
78B
330
788
100
AcDbEntity
  8
Bemaßungen_TC_020513_DIN_
  6
Continuous
 62
     7
100
AcDbLine
 10
553.866587689402
 20
86.63995084452513
 30
0.0
 11
542.866587689402
 21
86.63995084452513
 31
0.0
  0
SOLID
  5
78C
330
788
100
AcDbEntity
  8
Bemaßungen_TC_020513_DIN_
 62
     7
100
AcDbTrace
 10
545.1957189333705
 20
80.13995084452513
 30
0.0
 11
544.5374564454335
 21
80.13995084452513
 31
0.0
 12
544.866587689402
 22
82.63995084452513
 32
0.0
 13
544.866587689402
 23
82.63995084452513
 33
0.0
  0
SOLID
  5
78D
330
788
100
AcDbEntity
  8
Bemaßungen_TC_020513_DIN_
 62
     7
100
AcDbTrace
 10
544.5374564454335
 20
89.13995084452513
 30
0.0
 11
545.1957189333705
 21
89.13995084452513
 31
0.0
 12
544.866587689402
 22
86.63995084452513
 32
0.0
 13
544.866587689402
 23
86.63995084452513
 33
0.0
  0
MTEXT
  5
78E
330
788
100
AcDbEntity
  8
Bemaßungen_TC_020513_DIN_
 62
     7
100
AcDbMText
 10
541.9596225152727
 20
84.16451428245149
 30
0.0
 40
3.5
 41
0.0
 71
     7
 72
     1
  1
4
  7
CONVERTER_13
 11
0.0
 21
1.0
 31
0.0
 73
     1
 44
0.45454545454545
  0
ENDBLK
  5
790
330
788
100
AcDbEntity
  8
0
100
AcDbBlockEnd
  0
ENDSEC
  0
SECTION
  2
ENTITIES
  0
INSERT
  5
56
330
1F
100
AcDbEntity
  8
0
100
AcDbBlockReference
  2
A4_oriz
 10
635.865485179712
 20
4.99999999999993
 30
0.0
  0
POINT
  5
B2
330
1F
100
AcDbEntity
  8
Bemaßungen_TC_020513_DIN_
 62
     7
100
AcDbPoint
 10
493.0831783492599
 20
116.581950844525
 30
0.0
  0
POINT
  5
B3
330
1F
100
AcDbEntity
  8
Bemaßungen_TC_020513_DIN_
 62
     7
100
AcDbPoint
 10
493.0831783492599
 20
87.4779508445251
 30
0.0
  0
POINT
  5
B4
330
1F
100
AcDbEntity
  8
Bemaßungen_TC_020513_DIN_
 62
     7
100
AcDbPoint
 10
364.6492283775434
 20
127.639950844525
 30
0.0
  0
POINT
  5
B5
330
1F
100
AcDbEntity
  8
Bemaßungen_TC_020513_DIN_
 62
     7
100
AcDbPoint
 10
504.517128320976
 20
127.639950844525
 30
0.0
  0
POINT
  5
B6
330
1F
100
AcDbEntity
  8
Bemaßungen_TC_020513_DIN_
 62
     7
100
AcDbPoint
 10
611.8665876894129
 20
138.639950844525
 30
0.0
  0
POINT
  5
B7
330
1F
100
AcDbEntity
  8
Bemaßungen_TC_020513_DIN_
 62
     7
100
AcDbPoint
 10
554.866587689412
 20
138.639950844525
 30
0.0
  0
POINT
  5
B8
330
1F
100
AcDbEntity
  8
Bemaßungen_TC_020513_DIN_
 62
     7
100
AcDbPoint
 10
382.0831783492595
 20
84.6399508445251
 30
0.0
  0
POINT
  5
B9
330
1F
100
AcDbEntity
  8
Bemaßungen_TC_020513_DIN_
 62
     7
100
AcDbPoint
 10
487.0831783492599
 20
84.6399508445251
 30
0.0
  0
POINT
  5
BA
330
1F
100
AcDbEntity
  8
Bemaßungen_TC_020513_DIN_
 62
     7
100
AcDbPoint
 10
376.0831783492595
 20
84.6399508445251
 30
0.0
  0
POINT
  5
BB
330
1F
100
AcDbEntity
  8
Bemaßungen_TC_020513_DIN_
 62
     7
100
AcDbPoint
 10
493.0831783492599
 20
84.6399508445251
 30
0.0
  0
POINT
  5
BC
330
1F
100
AcDbEntity
  8
Bemaßungen_TC_020513_DIN_
 62
     7
100
AcDbPoint
 10
560.866587689404
 20
84.6399508445251
 30
0.0
  0
POINT
  5
BD
330
1F
100
AcDbEntity
  8
Bemaßungen_TC_020513_DIN_
 62
     7
100
AcDbPoint
 10
605.866587689404
 20
84.6399508445251
 30
0.0
  0
POINT
  5
BE
330
1F
100
AcDbEntity
  8
Bemaßungen_TC_020513_DIN_
 62
     7
100
AcDbPoint
 10
554.866587689402
 20
84.6399508445251
 30
0.0
  0
POINT
  5
BF
330
1F
100
AcDbEntity
  8
Bemaßungen_TC_020513_DIN_
 62
     7
100
AcDbPoint
 10
611.866587689402
 20
84.6399508445251
 30
0.0
  0
POINT
  5
C0
330
1F
100
AcDbEntity
  8
Bemaßungen_TC_020513_DIN_
 62
     7
100
AcDbPoint
 10
554.866587689402
 20
82.6399508445251
 30
0.0
  0
POINT
  5
C1
330
1F
100
AcDbEntity
  8
Bemaßungen_TC_020513_DIN_
 62
     7
100
AcDbPoint
 10
559.566587689411
 20
163.639950844525
 30
0.0
  0
POINT
  5
C2
330
1F
100
AcDbEntity
  8
Bemaßungen_TC_020513_DIN_
 62
     7
100
AcDbPoint
 10
478.23317834926
 20
145.639950844525
 30
0.0
  0
POINT
  5
C3
330
1F
100
AcDbEntity
  8
Bemaßungen_TC_020513_DIN_
 62
     7
100
AcDbPoint
 10
479.0831783492599
 20
82.6399508445251
 30
0.0
  0
POINT
  5
C4
330
1F
100
AcDbEntity
  8
Bemaßungen_TC_020513_DIN_
 62
     7
100
AcDbPoint
 10
554.866587689402
 20
82.6399508445251
 30
0.0
  0
POINT
  5
C5
330
1F
100
AcDbEntity
  8
Bemaßungen_TC_020513_DIN_
 62
     7
100
AcDbPoint
 10
554.866587689402
 20
86.6399508445251
 30
0.0
  0
LINE
  5
C6
330
1F
100
AcDbEntity
  8
Sichtbare_Kanten_TC_020513_DIN_
  6
Continuous
 62
     7
100
AcDbLine
 10
436.3331783492595
 20
109.083617455661
 30
0.0
 11
436.3331783492595
 21
112.19628423339
 31
0.0
  0
LINE
  5
C7
330
1F
100
AcDbEntity
  8
Sichtbare_Kanten_TC_020513_DIN_
  6
Continuous
 62
     7
100
AcDbLine
 10
437.708067296752
 20
109.44371369315
 30
0.0
 11
436.7080672967519
 21
108.867047026484
 31
0.0
  0
LINE
  5
C8
330
1F
100
AcDbEntity
  8
Sichtbare_Kanten_TC_020513_DIN_
  6
Continuous
 62
     7
100
AcDbLine
 10
436.8331783492595
 20
109.51637384456
 30
0.0
 11
437.4582894017671
 21
109.876854551506
 31
0.0
  0
LINE
  5
C9
330
1F
100
AcDbEntity
  8
Sichtbare_Kanten_TC_020513_DIN_
  6
Continuous
 62
     7
100
AcDbLine
 10
436.8331783492595
 20
110.389950844526
 30
0.0
 11
436.8331783492595
 21
109.51637384456
 31
0.0
  0
LINE
  5
CA
330
1F
100
AcDbEntity
  8
Sichtbare_Kanten_TC_020513_DIN_
  6
Continuous
 62
     7
100
AcDbLine
 10
437.5831783492595
 20
110.389950844526
 30
0.0
 11
436.8331783492595
 21
110.389950844526
 31
0.0
  0
LINE
  5
CB
330
1F
100
AcDbEntity
  8
Sichtbare_Kanten_TC_020513_DIN_
  6
Continuous
 62
     7
100
AcDbLine
 10
436.8331783492595
 20
110.889950844525
 30
0.0
 11
437.5831783492595
 21
110.889950844526
 31
0.0
  0
LINE
  5
CC
330
1F
100
AcDbEntity
  8
Sichtbare_Kanten_TC_020513_DIN_
  6
Continuous
 62
     7
100
AcDbLine
 10
436.8331783492595
 20
111.763527844492
 30
0.0
 11
436.8331783492595
 21
110.889950844525
 31
0.0
  0
LINE
  5
CD
330
1F
100
AcDbEntity
  8
Sichtbare_Kanten_TC_020513_DIN_
  6
Continuous
 62
     7
100
AcDbLine
 10
437.4582894017669
 20
111.403047137546
 30
0.0
 11
436.8331783492595
 21
111.763527844492
 31
0.0
  0
LINE
  5
CE
330
1F
100
AcDbEntity
  8
Sichtbare_Kanten_TC_020513_DIN_
  6
Continuous
 62
     7
100
AcDbLine
 10
436.708067296752
 20
112.412854662568
 30
0.0
 11
437.708067296752
 21
111.836187995901
 31
0.0
  0
LINE
  5
CF
330
1F
100
AcDbEntity
  8
Sichtbare_Kanten_TC_020513_DIN_
  6
Continuous
 62
     7
100
AcDbLine
 10
431.8331783492595
 20
111.629950844525
 30
0.0
 11
431.8331783492595
 21
109.649950844525
 31
0.0
  0
LINE
  5
D0
330
1F
100
AcDbEntity
  8
Sichtbare_Kanten_TC_020513_DIN_
  6
Continuous
 62
     7
100
AcDbLine
 10
431.3331783492595
 20
109.649950844525
 30
0.0
 11
431.3331783492595
 21
111.629950844525
 31
0.0
  0
LINE
  5
D1
330
1F
100
AcDbEntity
  8
Sichtbare_Kanten_TC_020513_DIN_
  6
Continuous
 62
     7
100
AcDbLine
 10
428.5831783492595
 20
110.639950844525
 30
0.0
 11
434.5831783492595
 21
107.179950844526
 31
0.0
  0
LINE
  5
D2
330
1F
100
AcDbEntity
  8
Sichtbare_Kanten_TC_020513_DIN_
  6
Continuous
 62
     7
100
AcDbLine
 10
434.5831783492595
 20
107.179950844526
 30
0.0
 11
440.58317834926
 21
110.639950844525
 31
0.0
  0
LINE
  5
D3
330
1F
100
AcDbEntity
  8
Sichtbare_Kanten_TC_020513_DIN_
  6
Continuous
 62
     7
100
AcDbLine
 10
440.58317834926
 20
110.639950844525
 30
0.0
 11
434.5831783492595
 21
114.099950844526
 31
0.0
  0
LINE
  5
D4
330
1F
100
AcDbEntity
  8
Sichtbare_Kanten_TC_020513_DIN_
  6
Continuous
 62
     7
100
AcDbLine
 10
434.5831783492595
 20
114.099950844526
 30
0.0
 11
428.5831783492595
 21
110.639950844525
 31
0.0
  0
LINE
  5
D5
330
1F
100
AcDbEntity
  8
Sichtbare_Kanten_TC_020513_DIN_
  6
Continuous
 62
     7
100
AcDbLine
 10
434.5831783492595
 20
106.891361122294
 30
0.0
 11
428.0827337442327
 21
110.639950844526
 31
0.0
  0
LINE
  5
D6
330
1F
100
AcDbEntity
  8
Sichtbare_Kanten_TC_020513_DIN_
  6
Continuous
 62
     7
100
AcDbLine
 10
441.0836229542859
 20
110.639950844526
 30
0.0
 11
434.5831783492595
 21
106.891361122294
 31
0.0
  0
LINE
  5
D7
330
1F
100
AcDbEntity
  8
Sichtbare_Kanten_TC_020513_DIN_
  6
Continuous
 62
     7
100
AcDbLine
 10
434.5831783492595
 20
114.388540566758
 30
0.0
 11
441.0836229542859
 21
110.639950844526
 31
0.0
  0
LINE
  5
D8
330
1F
100
AcDbEntity
  8
Sichtbare_Kanten_TC_020513_DIN_
  6
Continuous
 62
     7
100
AcDbLine
 10
428.0827337442327
 20
110.639950844526
 30
0.0
 11
434.5831783492595
 21
114.388540566758
 31
0.0
  0
LINE
  5
D9
330
1F
100
AcDbEntity
  8
Sichtbare_Kanten_TC_020513_DIN_
  6
Continuous
 62
     7
100
AcDbLine
 10
434.4582894017669
 20
107.713713693151
 30
0.0
 11
432.4582894017669
 21
108.867047026484
 31
0.0
  0
LINE
  5
DA
330
1F
100
AcDbEntity
  8
Sichtbare_Kanten_TC_020513_DIN_
  6
Continuous
 62
     7
100
AcDbLine
 10
432.8331783492595
 20
109.228040511226
 30
0.0
 11
434.708067296752
 21
108.146854551506
 31
0.0
  0
LINE
  5
DB
330
1F
100
AcDbEntity
  8
Sichtbare_Kanten_TC_020513_DIN_
  6
Continuous
 62
     7
100
AcDbLine
 10
432.8331783492595
 20
112.19628423339
 30
0.0
 11
432.8331783492595
 21
109.228040511226
 31
0.0
  0
LINE
  5
DC
330
1F
100
AcDbEntity
  8
Sichtbare_Kanten_TC_020513_DIN_
  6
Continuous
 62
     7
100
AcDbLine
 10
432.3331783492595
 20
109.083617455661
 30
0.0
 11
432.3331783492595
 21
112.19628423339
 31
0.0
  0
LINE
  5
DD
330
1F
100
AcDbEntity
  8
Sichtbare_Kanten_TC_020513_DIN_
  6
Continuous
 62
     7
100
AcDbLine
 10
433.8331783492595
 20
112.020271964705
 30
0.0
 11
433.8331783492595
 21
109.649950844525
 31
0.0
  0
LINE
  5
DE
330
1F
100
AcDbEntity
  8
Sichtbare_Kanten_TC_020513_DIN_
  6
Continuous
 62
     7
100
AcDbLine
 10
434.5831783492595
 20
111.015808661597
 30
0.0
 11
433.8331783492595
 21
112.020271964705
 31
0.0
  0
LINE
  5
DF
330
1F
100
AcDbEntity
  8
Sichtbare_Kanten_TC_020513_DIN_
  6
Continuous
 62
     7
100
AcDbLine
 10
435.3331783492595
 20
112.020271964705
 30
0.0
 11
434.5831783492595
 21
111.015808661597
 31
0.0
  0
LINE
  5
E0
330
1F
100
AcDbEntity
  8
Sichtbare_Kanten_TC_020513_DIN_
  6
Continuous
 62
     7
100
AcDbLine
 10
435.3331783492595
 20
108.506950788995
 30
0.0
 11
435.3331783492595
 21
112.020271964705
 31
0.0
  0
LINE
  5
E1
330
1F
100
AcDbEntity
  8
Sichtbare_Kanten_TC_020513_DIN_
  6
Continuous
 62
     7
100
AcDbLine
 10
435.8331783492595
 20
112.772950900057
 30
0.0
 11
435.8331783492595
 21
108.506950788995
 31
0.0
  0
LINE
  5
E2
330
1F
100
AcDbEntity
  8
Sichtbare_Kanten_TC_020513_DIN_
  6
Continuous
 62
     7
100
AcDbLine
 10
434.5831783492595
 20
111.851524330228
 30
0.0
 11
435.3828583638843
 21
112.922523302121
 31
0.0
  0
LINE
  5
E3
330
1F
100
AcDbEntity
  8
Sichtbare_Kanten_TC_020513_DIN_
  6
Continuous
 62
     7
100
AcDbLine
 10
433.7834983346346
 20
112.922523302121
 30
0.0
 11
434.5831783492595
 21
111.851524330228
 31
0.0
  0
LINE
  5
E4
330
1F
100
AcDbEntity
  8
Sichtbare_Kanten_TC_020513_DIN_
  6
Continuous
 62
     7
100
AcDbLine
 10
433.3331783492595
 20
109.649950844525
 30
0.0
 11
433.3331783492595
 21
112.772950900057
 31
0.0
  0
LINE
  5
E5
330
1F
100
AcDbEntity
  8
Sichtbare_Kanten_TC_020513_DIN_
  6
Continuous
 62
     7
100
AcDbLine
 10
395.0831783492595
 20
82.6399508445251
 30
0.0
 11
395.0831783492595
 21
86.6399508445251
 31
0.0
  0
LINE
  5
E6
330
1F
100
AcDbEntity
  8
Sichtbare_Kanten_TC_020513_DIN_
  6
Continuous
 62
     7
100
AcDbLine
 10
474.0831783492599
 20
82.6399508445251
 30
0.0
 11
395.0831783492595
 21
82.6399508445251
 31
0.0
  0
LINE
  5
E7
330
1F
100
AcDbEntity
  8
Sichtbare_Kanten_TC_020513_DIN_
  6
Continuous
 62
     7
100
AcDbLine
 10
474.0831783492599
 20
82.6399508445251
 30
0.0
 11
474.0831783492599
 21
86.6399508445251
 31
0.0
  0
LINE
  5
E8
330
1F
100
AcDbEntity
  8
Sichtbare_Kanten_TC_020513_DIN_
  6
Continuous
 62
     7
100
AcDbLine
 10
493.0831783492599
 20
82.6399508445251
 30
0.0
 11
484.0831783492599
 21
82.6399508445251
 31
0.0
  0
LINE
  5
E9
330
1F
100
AcDbEntity
  8
Sichtbare_Kanten_TC_020513_DIN_
  6
Continuous
 62
     7
100
AcDbLine
 10
484.0831783492599
 20
82.6399508445251
 30
0.0
 11
474.0831783492599
 21
82.6399508445251
 31
0.0
  0
LINE
  5
EA
330
1F
100
AcDbEntity
  8
Sichtbare_Kanten_TC_020513_DIN_
  6
Continuous
 62
     7
100
AcDbLine
 10
395.0831783492595
 20
82.6399508445251
 30
0.0
 11
385.0831783492595
 21
82.6399508445251
 31
0.0
  0
LINE
  5
EB
330
1F
100
AcDbEntity
  8
Sichtbare_Kanten_TC_020513_DIN_
  6
Continuous
 62
     7
100
AcDbLine
 10
385.0831783492595
 20
82.6399508445251
 30
0.0
 11
376.0831783492595
 21
82.6399508445251
 31
0.0
  0
LINE
  5
EC
330
1F
100
AcDbEntity
  8
Sichtbare_Kanten_TC_020513_DIN_
  6
Continuous
 62
     7
100
AcDbLine
 10
385.0831783492595
 20
86.6399508445251
 30
0.0
 11
376.0831783492595
 21
86.6399508445251
 31
0.0
  0
LINE
  5
ED
330
1F
100
AcDbEntity
  8
Sichtbare_Kanten_TC_020513_DIN_
  6
Continuous
 62
     7
100
AcDbLine
 10
395.0831783492595
 20
86.6399508445251
 30
0.0
 11
385.0831783492595
 21
86.6399508445251
 31
0.0
  0
LINE
  5
EE
330
1F
100
AcDbEntity
  8
Sichtbare_Kanten_TC_020513_DIN_
  6
Continuous
 62
     7
100
AcDbLine
 10
493.0831783492599
 20
82.6399508445251
 30
0.0
 11
493.0831783492599
 21
86.6399508445251
 31
0.0
  0
LINE
  5
EF
330
1F
100
AcDbEntity
  8
Sichtbare_Kanten_TC_020513_DIN_
  6
Continuous
 62
     7
100
AcDbLine
 10
484.0831783492599
 20
86.6399508445251
 30
0.0
 11
474.0831783492599
 21
86.6399508445251
 31
0.0
  0
LINE
  5
F0
330
1F
100
AcDbEntity
  8
Sichtbare_Kanten_TC_020513_DIN_
  6
Continuous
 62
     7
100
AcDbLine
 10
493.0831783492599
 20
86.6399508445251
 30
0.0
 11
484.0831783492599
 21
86.6399508445251
 31
0.0
  0
LINE
  5
F1
330
1F
100
AcDbEntity
  8
Sichtbare_Kanten_TC_020513_DIN_
  6
Continuous
 62
     7
100
AcDbLine
 10
484.0831783492599
 20
82.6399508445251
 30
0.0
 11
484.0831783492599
 21
86.6399508445251
 31
0.0
  0
LINE
  5
F2
330
1F
100
AcDbEntity
  8
Sichtbare_Kanten_TC_020513_DIN_
  6
Continuous
 62
     7
100
AcDbLine
 10
385.0831783492595
 20
82.6399508445251
 30
0.0
 11
385.0831783492595
 21
86.6399508445251
 31
0.0
  0
LINE
  5
F3
330
1F
100
AcDbEntity
  8
Sichtbare_Kanten_TC_020513_DIN_
  6
Continuous
 62
     7
100
AcDbLine
 10
376.0831783492595
 20
82.6399508445251
 30
0.0
 11
376.0831783492595
 21
86.6399508445251
 31
0.0
  0
LINE
  5
F4
330
1F
100
AcDbEntity
  8
Sichtbare_Kanten_TC_020513_DIN_
  6
Continuous
 62
     7
100
AcDbLine
 10
475.3331783492599
 20
141.639950844525
 30
0.0
 11
467.967511541253
 21
141.639950844525
 31
0.0
  0
LINE
  5
F5
330
1F
100
AcDbEntity
  8
Sichtbare_Kanten_TC_020513_DIN_
  6
Continuous
 62
     7
100
AcDbLine
 10
452.258623028923
 20
141.639950844525
 30
0.0
 11
416.9077336695962
 21
141.639950844525
 31
0.0
  0
LINE
  5
F6
330
1F
100
AcDbEntity
  8
Sichtbare_Kanten_TC_020513_DIN_
  6
Continuous
 62
     7
100
AcDbLine
 10
401.1988451572657
 20
141.639950844525
 30
0.0
 11
393.8331783492595
 21
141.639950844525
 31
0.0
  0
LINE
  5
F7
330
1F
100
AcDbEntity
  8
Sichtbare_Kanten_TC_020513_DIN_
  6
Continuous
 62
     7
100
AcDbLine
 10
481.3331783492599
 20
86.6399508445251
 30
0.0
 11
481.3331783492599
 21
132.639950844525
 31
0.0
  0
LINE
  5
F8
330
1F
100
AcDbEntity
  8
Sichtbare_Kanten_TC_020513_DIN_
  6
Continuous
 62
     7
100
AcDbLine
 10
481.3331783492599
 20
139.639950844525
 30
0.0
 11
481.3331783492599
 21
141.639950844525
 31
0.0
  0
LINE
  5
F9
330
1F
100
AcDbEntity
  8
Sichtbare_Kanten_TC_020513_DIN_
  6
Continuous
 62
     7
100
AcDbLine
 10
387.8331783492595
 20
86.6399508445251
 30
0.0
 11
387.8331783492595
 21
132.639950844525
 31
0.0
  0
LINE
  5
FA
330
1F
100
AcDbEntity
  8
Sichtbare_Kanten_TC_020513_DIN_
  6
Continuous
 62
     7
100
AcDbLine
 10
387.8331783492595
 20
139.639950844525
 30
0.0
 11
387.8331783492595
 21
141.639950844525
 31
0.0
  0
LINE
  5
FB
330
1F
100
AcDbEntity
  8
Sichtbare_Kanten_TC_020513_DIN_
  6
Continuous
 62
     7
100
AcDbLine
 10
387.8331783492595
 20
141.639950844525
 30
0.0
 11
393.8331783492595
 21
141.639950844525
 31
0.0
  0
LINE
  5
FC
330
1F
100
AcDbEntity
  8
Sichtbare_Kanten_TC_020513_DIN_
  6
Continuous
 62
     7
100
AcDbLine
 10
475.3331783492599
 20
141.639950844525
 30
0.0
 11
481.3331783492599
 21
141.639950844525
 31
0.0
  0
LINE
  5
FD
330
1F
100
AcDbEntity
  8
Sichtbare_Kanten_TC_020513_DIN_
  6
Continuous
 62
     7
100
AcDbLine
 10
376.0831783492595
 20
102.0299508445251
 30
0.0
 11
376.0831783492595
 21
86.6399508445251
 31
0.0
  0
LINE
  5
FE
330
1F
100
AcDbEntity
  8
Sichtbare_Kanten_TC_020513_DIN_
  6
Continuous
 62
     7
100
AcDbLine
 10
376.0831783492595
 20
102.0299508445251
 30
0.0
 11
376.0831783492595
 21
117.169950844525
 31
0.0
  0
LINE
  5
FF
330
1F
100
AcDbEntity
  8
Sichtbare_Kanten_TC_020513_DIN_
  6
Continuous
 62
     7
100
AcDbLine
 10
387.8331783492595
 20
117.169950844525
 30
0.0
 11
376.0831783492595
 21
117.169950844525
 31
0.0
  0
LINE
  5
100
330
1F
100
AcDbEntity
  8
Sichtbare_Kanten_TC_020513_DIN_
  6
Continuous
 62
     7
100
AcDbLine
 10
493.0831783492599
 20
102.0299508445251
 30
0.0
 11
493.0831783492599
 21
117.169950844525
 31
0.0
  0
LINE
  5
101
330
1F
100
AcDbEntity
  8
Sichtbare_Kanten_TC_020513_DIN_
  6
Continuous
 62
     7
100
AcDbLine
 10
493.0831783492599
 20
102.0299508445251
 30
0.0
 11
493.0831783492599
 21
86.6399508445251
 31
0.0
  0
LINE
  5
102
330
1F
100
AcDbEntity
  8
Sichtbare_Kanten_TC_020513_DIN_
  6
Continuous
 62
     7
100
AcDbLine
 10
493.0831783492599
 20
117.169950844525
 30
0.0
 11
481.3331783492599
 21
117.169950844525
 31
0.0
  0
LINE
  5
103
330
1F
100
AcDbEntity
  8
Sichtbare_Kanten_TC_020513_DIN_
  6
Continuous
 62
     7
100
AcDbLine
 10
388.0331783492595
 20
145.639950844525
 30
0.0
 11
388.0331783492595
 21
141.639950844525
 31
0.0
  0
LINE
  5
104
330
1F
100
AcDbEntity
  8
Sichtbare_Kanten_TC_020513_DIN_
  6
Continuous
 62
     7
100
AcDbLine
 10
393.8331783492595
 20
145.639950844525
 30
0.0
 11
388.0331783492595
 21
145.639950844525
 31
0.0
  0
LINE
  5
105
330
1F
100
AcDbEntity
  8
Sichtbare_Kanten_TC_020513_DIN_
  6
Continuous
 62
     7
100
AcDbLine
 10
393.8331783492595
 20
145.639950844525
 30
0.0
 11
396.4460113870809
 21
145.639950844525
 31
0.0
  0
LINE
  5
106
330
1F
100
AcDbEntity
  8
Sichtbare_Kanten_TC_020513_DIN_
  6
Continuous
 62
     7
100
AcDbLine
 10
407.5831783492595
 20
145.639950844525
 30
0.0
 11
461.58317834926
 21
145.639950844525
 31
0.0
  0
LINE
  5
107
330
1F
100
AcDbEntity
  8
Sichtbare_Kanten_TC_020513_DIN_
  6
Continuous
 62
     7
100
AcDbLine
 10
472.720345311438
 20
145.639950844525
 30
0.0
 11
475.3331783492599
 21
145.639950844525
 31
0.0
  0
LINE
  5
108
330
1F
100
AcDbEntity
  8
Sichtbare_Kanten_TC_020513_DIN_
  6
Continuous
 62
     7
100
AcDbLine
 10
481.133178349259
 20
145.639950844525
 30
0.0
 11
481.133178349259
 21
141.639950844525
 31
0.0
  0
LINE
  5
109
330
1F
100
AcDbEntity
  8
Sichtbare_Kanten_TC_020513_DIN_
  6
Continuous
 62
     7
100
AcDbLine
 10
481.133178349259
 20
145.639950844525
 30
0.0
 11
475.3331783492599
 21
145.639950844525
 31
0.0
  0
LINE
  5
10A
330
1F
100
AcDbEntity
  8
Sichtbare_Kanten_TC_020513_DIN_
  6
Continuous
 62
     7
100
AcDbLine
 10
490.272067238148
 20
126.423313541934
 30
0.0
 11
493.383178349259
 21
126.423313541934
 31
0.0
  0
LINE
  5
10B
330
1F
100
AcDbEntity
  8
Sichtbare_Kanten_TC_020513_DIN_
  6
Continuous
 62
     7
100
AcDbLine
 10
490.272067238148
 20
126.423313541934
 30
0.0
 11
489.883178349259
 21
126.423313541934
 31
0.0
  0
LINE
  5
10C
330
1F
100
AcDbEntity
  8
Sichtbare_Kanten_TC_020513_DIN_
  6
Continuous
 62
     7
100
AcDbLine
 10
482.883178349259
 20
126.423313541934
 30
0.0
 11
482.845523434252
 21
126.423313541934
 31
0.0
  0
LINE
  5
10D
330
1F
100
AcDbEntity
  8
Sichtbare_Kanten_TC_020513_DIN_
  6
Continuous
 62
     7
100
AcDbLine
 10
493.383178349259
 20
126.423313541934
 30
0.0
 11
493.383178349259
 21
127.823313541934
 31
0.0
  0
LINE
  5
10E
330
1F
100
AcDbEntity
  8
Sichtbare_Kanten_TC_020513_DIN_
  6
Continuous
 62
     7
100
AcDbLine
 10
482.883178349259
 20
127.823313541934
 30
0.0
 11
482.845523434252
 21
127.823313541934
 31
0.0
  0
LINE
  5
10F
330
1F
100
AcDbEntity
  8
Sichtbare_Kanten_TC_020513_DIN_
  6
Continuous
 62
     7
100
AcDbLine
 10
490.272067238148
 20
127.823313541934
 30
0.0
 11
489.883178349259
 21
127.823313541934
 31
0.0
  0
LINE
  5
110
330
1F
100
AcDbEntity
  8
Sichtbare_Kanten_TC_020513_DIN_
  6
Continuous
 62
     7
100
AcDbLine
 10
490.272067238148
 20
127.823313541934
 30
0.0
 11
493.383178349259
 21
127.823313541934
 31
0.0
  0
LINE
  5
111
330
1F
100
AcDbEntity
  8
Sichtbare_Kanten_TC_020513_DIN_
  6
Continuous
 62
     7
100
AcDbLine
 10
489.883178349259
 20
129.223313541934
 30
0.0
 11
489.883178349259
 21
131.639950844525
 31
0.0
  0
LINE
  5
112
330
1F
100
AcDbEntity
  8
Sichtbare_Kanten_TC_020513_DIN_
  6
Continuous
 62
     7
100
AcDbLine
 10
481.883178349259
 20
139.639950844525
 30
0.0
 11
468.5831783492599
 21
139.639950844525
 31
0.0
  0
LINE
  5
113
330
1F
100
AcDbEntity
  8
Sichtbare_Kanten_TC_020513_DIN_
  6
Continuous
 62
     7
100
AcDbLine
 10
451.58317834926
 20
138.639950844525
 30
0.0
 11
451.58317834926
 21
125.139950844525
 31
0.0
  0
LINE
  5
114
330
1F
100
AcDbEntity
  8
Sichtbare_Kanten_TC_020513_DIN_
  6
Continuous
 62
     7
100
AcDbLine
 10
470.5831783492599
 20
132.639950844525
 30
0.0
 11
481.883178349259
 21
132.639950844525
 31
0.0
  0
LINE
  5
115
330
1F
100
AcDbEntity
  8
Sichtbare_Kanten_TC_020513_DIN_
  6
Continuous
 62
     7
100
AcDbLine
 10
482.883178349259
 20
131.639950844525
 30
0.0
 11
482.883178349259
 21
129.223313541934
 31
0.0
  0
LINE
  5
116
330
1F
100
AcDbEntity
  8
Sichtbare_Kanten_TC_020513_DIN_
  6
Continuous
 62
     7
100
AcDbLine
 10
482.7455234342519
 20
125.485658626927
 30
0.0
 11
481.345523434252
 21
125.485658626927
 31
0.0
  0
LINE
  5
117
330
1F
100
AcDbEntity
  8
Sichtbare_Kanten_TC_020513_DIN_
  6
Continuous
 62
     7
100
AcDbLine
 10
481.345523434252
 20
126.323313541934
 30
0.0
 11
481.345523434252
 21
125.485658626927
 31
0.0
  0
LINE
  5
118
330
1F
100
AcDbEntity
  8
Sichtbare_Kanten_TC_020513_DIN_
  6
Continuous
 62
     7
100
AcDbLine
 10
482.7455234342519
 20
126.323313541934
 30
0.0
 11
482.7455234342519
 21
125.485658626927
 31
0.0
  0
LINE
  5
119
330
1F
100
AcDbEntity
  8
Sichtbare_Kanten_TC_020513_DIN_
  6
Continuous
 62
     7
100
AcDbLine
 10
489.883178349259
 20
126.423313541934
 30
0.0
 11
482.883178349259
 21
126.423313541934
 31
0.0
  0
LINE
  5
11A
330
1F
100
AcDbEntity
  8
Sichtbare_Kanten_TC_020513_DIN_
  6
Continuous
 62
     7
100
AcDbLine
 10
482.883178349259
 20
126.423313541934
 30
0.0
 11
482.883178349259
 21
129.223313541934
 31
0.0
  0
LINE
  5
11B
330
1F
100
AcDbEntity
  8
Sichtbare_Kanten_TC_020513_DIN_
  6
Continuous
 62
     7
100
AcDbLine
 10
489.883178349259
 20
129.223313541934
 30
0.0
 11
489.883178349259
 21
126.423313541934
 31
0.0
  0
LINE
  5
11C
330
1F
100
AcDbEntity
  8
Sichtbare_Kanten_TC_020513_DIN_
  6
Continuous
 62
     7
100
AcDbLine
 10
386.2831783492595
 20
126.423313541934
 30
0.0
 11
386.3208332642669
 21
126.423313541934
 31
0.0
  0
LINE
  5
11D
330
1F
100
AcDbEntity
  8
Sichtbare_Kanten_TC_020513_DIN_
  6
Continuous
 62
     7
100
AcDbLine
 10
378.8942894603705
 20
126.423313541934
 30
0.0
 11
379.2831783492595
 21
126.423313541934
 31
0.0
  0
LINE
  5
11E
330
1F
100
AcDbEntity
  8
Sichtbare_Kanten_TC_020513_DIN_
  6
Continuous
 62
     7
100
AcDbLine
 10
378.8942894603705
 20
126.423313541934
 30
0.0
 11
375.7831783492595
 21
126.423313541934
 31
0.0
  0
LINE
  5
11F
330
1F
100
AcDbEntity
  8
Sichtbare_Kanten_TC_020513_DIN_
  6
Continuous
 62
     7
100
AcDbLine
 10
386.4208332642669
 20
125.485658626927
 30
0.0
 11
387.8208332642669
 21
125.485658626927
 31
0.0
  0
LINE
  5
120
330
1F
100
AcDbEntity
  8
Sichtbare_Kanten_TC_020513_DIN_
  6
Continuous
 62
     7
100
AcDbLine
 10
387.8208332642669
 20
126.323313541934
 30
0.0
 11
387.8208332642669
 21
125.485658626927
 31
0.0
  0
LINE
  5
121
330
1F
100
AcDbEntity
  8
Sichtbare_Kanten_TC_020513_DIN_
  6
Continuous
 62
     7
100
AcDbLine
 10
386.4208332642669
 20
126.323313541934
 30
0.0
 11
386.4208332642669
 21
125.485658626927
 31
0.0
  0
LINE
  5
122
330
1F
100
AcDbEntity
  8
Sichtbare_Kanten_TC_020513_DIN_
  6
Continuous
 62
     7
100
AcDbLine
 10
386.2831783492595
 20
127.823313541934
 30
0.0
 11
386.3208332642669
 21
127.823313541934
 31
0.0
  0
LINE
  5
123
330
1F
100
AcDbEntity
  8
Sichtbare_Kanten_TC_020513_DIN_
  6
Continuous
 62
     7
100
AcDbLine
 10
378.8942894603705
 20
127.823313541934
 30
0.0
 11
375.7831783492595
 21
127.823313541934
 31
0.0
  0
LINE
  5
124
330
1F
100
AcDbEntity
  8
Sichtbare_Kanten_TC_020513_DIN_
  6
Continuous
 62
     7
100
AcDbLine
 10
378.8942894603705
 20
127.823313541934
 30
0.0
 11
379.2831783492595
 21
127.823313541934
 31
0.0
  0
LINE
  5
125
330
1F
100
AcDbEntity
  8
Sichtbare_Kanten_TC_020513_DIN_
  6
Continuous
 62
     7
100
AcDbLine
 10
386.2831783492595
 20
131.639950844525
 30
0.0
 11
386.2831783492595
 21
129.223313541934
 31
0.0
  0
LINE
  5
126
330
1F
100
AcDbEntity
  8
Sichtbare_Kanten_TC_020513_DIN_
  6
Continuous
 62
     7
100
AcDbLine
 10
398.5831783492595
 20
132.639950844525
 30
0.0
 11
387.2831783492595
 21
132.639950844525
 31
0.0
  0
LINE
  5
127
330
1F
100
AcDbEntity
  8
Sichtbare_Kanten_TC_020513_DIN_
  6
Continuous
 62
     7
100
AcDbLine
 10
417.5831783492595
 20
138.639950844525
 30
0.0
 11
417.5831783492595
 21
125.139950844525
 31
0.0
  0
LINE
  5
128
330
1F
100
AcDbEntity
  8
Sichtbare_Kanten_TC_020513_DIN_
  6
Continuous
 62
     7
100
AcDbLine
 10
387.2831783492595
 20
139.639950844525
 30
0.0
 11
400.5831783492595
 21
139.639950844525
 31
0.0
  0
LINE
  5
129
330
1F
100
AcDbEntity
  8
Sichtbare_Kanten_TC_020513_DIN_
  6
Continuous
 62
     7
100
AcDbLine
 10
379.2831783492595
 20
129.223313541934
 30
0.0
 11
379.2831783492595
 21
131.639950844525
 31
0.0
  0
LINE
  5
12A
330
1F
100
AcDbEntity
  8
Sichtbare_Kanten_TC_020513_DIN_
  6
Continuous
 62
     7
100
AcDbLine
 10
375.7831783492595
 20
126.423313541934
 30
0.0
 11
375.7831783492595
 21
127.823313541934
 31
0.0
  0
LINE
  5
12B
330
1F
100
AcDbEntity
  8
Sichtbare_Kanten_TC_020513_DIN_
  6
Continuous
 62
     7
100
AcDbLine
 10
388.5577328228305
 20
158.483412113315
 30
0.0
 11
385.2165410466687
 21
156.436192428717
 31
0.0
  0
LINE
  5
12C
330
1F
100
AcDbEntity
  8
Sichtbare_Kanten_TC_020513_DIN_
  6
Continuous
 62
     7
100
AcDbLine
 10
415.0831783492595
 20
128.502295929518
 30
0.0
 11
415.0831783492595
 21
128.541338663391
 31
0.0
  0
LINE
  5
12D
330
1F
100
AcDbEntity
  8
Sichtbare_Kanten_TC_020513_DIN_
  6
Continuous
 62
     7
100
AcDbLine
 10
407.5831783492595
 20
144.964506164862
 30
0.0
 11
407.5831783492595
 21
146.639950844525
 31
0.0
  0
LINE
  5
12E
330
1F
100
AcDbEntity
  8
Sichtbare_Kanten_TC_020513_DIN_
  6
Continuous
 62
     7
100
AcDbLine
 10
407.5831783492595
 20
146.639950844525
 30
0.0
 11
405.3543004129232
 21
149.855085375224
 31
0.0
  0
LINE
  5
12F
330
1F
100
AcDbEntity
  8
Sichtbare_Kanten_TC_020513_DIN_
  6
Continuous
 62
     7
100
AcDbLine
 10
405.2961763935899
 20
150.313161111539
 30
0.0
 11
406.3618214020835
 21
153.198843247653
 31
0.0
  0
LINE
  5
130
330
1F
100
AcDbEntity
  8
Sichtbare_Kanten_TC_020513_DIN_
  6
Continuous
 62
     7
100
AcDbLine
 10
414.8434600300876
 20
163.639950844525
 30
0.0
 11
406.8434600300876
 21
163.639950844525
 31
0.0
  0
LINE
  5
131
330
1F
100
AcDbEntity
  8
Sichtbare_Kanten_TC_020513_DIN_
  6
Continuous
 62
     7
100
AcDbLine
 10
385.2165410466687
 20
146.00093617952
 30
0.0
 11
386.5831783492595
 21
146.00093617952
 31
0.0
  0
LINE
  5
132
330
1F
100
AcDbEntity
  8
Sichtbare_Kanten_TC_020513_DIN_
  6
Continuous
 62
     7
100
AcDbLine
 10
387.3674778754452
 20
146.380553835135
 30
0.0
 11
390.1910285861666
 21
149.950142016718
 31
0.0
  0
LINE
  5
133
330
1F
100
AcDbEntity
  8
Sichtbare_Kanten_TC_020513_DIN_
  6
Continuous
 62
     7
100
AcDbLine
 10
390.8933695214521
 20
150.032100607618
 30
0.0
 11
401.0071264106866
 21
142.032100607618
 31
0.0
  0
LINE
  5
134
330
1F
100
AcDbEntity
  8
Sichtbare_Kanten_TC_020513_DIN_
  6
Continuous
 62
     7
100
AcDbLine
 10
401.1950325875399
 20
141.683528715899
 30
0.0
 11
401.3221329428654
 21
140.230765006828
 31
0.0
  0
LINE
  5
135
330
1F
100
AcDbEntity
  8
Sichtbare_Kanten_TC_020513_DIN_
  6
Continuous
 62
     7
100
AcDbLine
 10
412.147037687625
 20
128.639950844525
 30
0.0
 11
412.1831783492595
 21
128.639950844525
 31
0.0
  0
LINE
  5
136
330
1F
100
AcDbEntity
  8
Sichtbare_Kanten_TC_020513_DIN_
  6
Continuous
 62
     7
100
AcDbLine
 10
412.1831783492595
 20
128.639950844525
 30
0.0
 11
412.1831783492595
 21
128.502295929518
 31
0.0
  0
LINE
  5
137
330
1F
100
AcDbEntity
  8
Sichtbare_Kanten_TC_020513_DIN_
  6
Continuous
 62
     7
100
AcDbLine
 10
383.8165410466687
 20
145.815640940796
 30
0.0
 11
383.8165410466687
 21
144.440759151023
 31
0.0
  0
LINE
  5
138
330
1F
100
AcDbEntity
  8
Sichtbare_Kanten_TC_020513_DIN_
  6
Continuous
 62
     7
100
AcDbLine
 10
382.4165410466688
 20
144.440759151023
 30
0.0
 11
382.4165410466687
 21
145.815640940796
 31
0.0
  0
LINE
  5
139
330
1F
100
AcDbEntity
  8
Sichtbare_Kanten_TC_020513_DIN_
  6
Continuous
 62
     7
100
AcDbLine
 10
383.8165410466687
 20
146.00093617952
 30
0.0
 11
383.8165410466687
 21
145.815640940796
 31
0.0
  0
LINE
  5
13A
330
1F
100
AcDbEntity
  8
Sichtbare_Kanten_TC_020513_DIN_
  6
Continuous
 62
     7
100
AcDbLine
 10
382.4165410466687
 20
145.815640940796
 30
0.0
 11
382.4165410466687
 21
146.00093617952
 31
0.0
  0
LINE
  5
13B
330
1F
100
AcDbEntity
  8
Sichtbare_Kanten_TC_020513_DIN_
  6
Continuous
 62
     7
100
AcDbLine
 10
376.082265653873
 20
157.217573482111
 30
0.0
 11
374.599903744078
 21
157.217573482111
 31
0.0
  0
LINE
  5
13C
330
1F
100
AcDbEntity
  8
Sichtbare_Kanten_TC_020513_DIN_
  6
Continuous
 62
     7
100
AcDbLine
 10
374.599903744078
 20
155.817573482111
 30
0.0
 11
374.599903744078
 21
157.217573482111
 31
0.0
  0
LINE
  5
13D
330
1F
100
AcDbEntity
  8
Sichtbare_Kanten_TC_020513_DIN_
  6
Continuous
 62
     7
100
AcDbLine
 10
374.599903744078
 20
155.817573482111
 30
0.0
 11
376.082265653873
 21
155.817573482111
 31
0.0
  0
LINE
  5
13E
330
1F
100
AcDbEntity
  8
Sichtbare_Kanten_TC_020513_DIN_
  6
Continuous
 62
     7
100
AcDbLine
 10
376.082265653873
 20
157.217573482111
 30
0.0
 11
381.0165410466686
 21
157.217573482111
 31
0.0
  0
LINE
  5
13F
330
1F
100
AcDbEntity
  8
Sichtbare_Kanten_TC_020513_DIN_
  6
Continuous
 62
     7
100
AcDbLine
 10
381.0165410466686
 20
155.817573482111
 30
0.0
 11
376.082265653873
 21
155.817573482111
 31
0.0
  0
LINE
  5
140
330
1F
100
AcDbEntity
  8
Sichtbare_Kanten_TC_020513_DIN_
  6
Continuous
 62
     7
100
AcDbLine
 10
412.1831783492595
 20
128.402295929518
 30
0.0
 11
412.1831783492595
 21
127.002295929518
 31
0.0
  0
LINE
  5
141
330
1F
100
AcDbEntity
  8
Sichtbare_Kanten_TC_020513_DIN_
  6
Continuous
 62
     7
100
AcDbLine
 10
412.1831783492595
 20
127.002295929518
 30
0.0
 11
412.6831783492595
 21
127.002295929518
 31
0.0
  0
LINE
  5
142
330
1F
100
AcDbEntity
  8
Sichtbare_Kanten_TC_020513_DIN_
  6
Continuous
 62
     7
100
AcDbLine
 10
412.6831783492595
 20
128.402295929518
 30
0.0
 11
412.1831783492595
 21
128.402295929518
 31
0.0
  0
LINE
  5
143
330
1F
100
AcDbEntity
  8
Sichtbare_Kanten_TC_020513_DIN_
  6
Continuous
 62
     7
100
AcDbLine
 10
414.5831783492595
 20
127.002295929518
 30
0.0
 11
412.6831783492595
 21
127.002295929518
 31
0.0
  0
LINE
  5
144
330
1F
100
AcDbEntity
  8
Sichtbare_Kanten_TC_020513_DIN_
  6
Continuous
 62
     7
100
AcDbLine
 10
412.6831783492595
 20
128.402295929518
 30
0.0
 11
414.5831783492595
 21
128.402295929518
 31
0.0
  0
LINE
  5
145
330
1F
100
AcDbEntity
  8
Sichtbare_Kanten_TC_020513_DIN_
  6
Continuous
 62
     7
100
AcDbLine
 10
414.5831783492595
 20
127.002295929518
 30
0.0
 11
415.0831783492595
 21
127.002295929518
 31
0.0
  0
LINE
  5
146
330
1F
100
AcDbEntity
  8
Sichtbare_Kanten_TC_020513_DIN_
  6
Continuous
 62
     7
100
AcDbLine
 10
415.0831783492595
 20
128.402295929518
 30
0.0
 11
415.0831783492595
 21
127.002295929518
 31
0.0
  0
LINE
  5
147
330
1F
100
AcDbEntity
  8
Sichtbare_Kanten_TC_020513_DIN_
  6
Continuous
 62
     7
100
AcDbLine
 10
415.0831783492595
 20
128.402295929518
 30
0.0
 11
414.5831783492595
 21
128.402295929518
 31
0.0
  0
LINE
  5
148
330
1F
100
AcDbEntity
  8
Sichtbare_Kanten_TC_020513_DIN_
  6
Continuous
 62
     7
100
AcDbLine
 10
380.3591339761358
 20
136.405580705846
 30
0.0
 11
380.985607189724
 21
137.7490568479
 31
0.0
  0
LINE
  5
149
330
1F
100
AcDbEntity
  8
Sichtbare_Kanten_TC_020513_DIN_
  6
Continuous
 62
     7
100
AcDbLine
 10
379.7167762878727
 20
138.340722414337
 30
0.0
 11
379.0903030742845
 21
136.997246272283
 31
0.0
  0
LINE
  5
14A
330
1F
100
AcDbEntity
  8
Sichtbare_Kanten_TC_020513_DIN_
  6
Continuous
 62
     7
100
AcDbLine
 10
379.0903030742845
 20
136.997246272283
 30
0.0
 11
380.3591339761358
 21
136.405580705846
 31
0.0
  0
LINE
  5
14B
330
1F
100
AcDbEntity
  8
Sichtbare_Kanten_TC_020513_DIN_
  6
Continuous
 62
     7
100
AcDbLine
 10
379.7167762878727
 20
138.340722414337
 30
0.0
 11
382.28537194852
 21
143.849093584586
 31
0.0
  0
LINE
  5
14C
330
1F
100
AcDbEntity
  8
Sichtbare_Kanten_TC_020513_DIN_
  6
Continuous
 62
     7
100
AcDbLine
 10
383.5542028503713
 20
143.257428018149
 30
0.0
 11
380.985607189724
 21
137.7490568479
 31
0.0
  0
LINE
  5
14D
330
1F
100
AcDbEntity
  8
Sichtbare_Kanten_TC_020513_DIN_
  6
Continuous
 62
     7
100
AcDbLine
 10
386.2831783492595
 20
126.423313541934
 30
0.0
 11
379.2831783492595
 21
126.423313541934
 31
0.0
  0
LINE
  5
14E
330
1F
100
AcDbEntity
  8
Sichtbare_Kanten_TC_020513_DIN_
  6
Continuous
 62
     7
100
AcDbLine
 10
379.2831783492595
 20
126.423313541934
 30
0.0
 11
379.2831783492595
 21
129.223313541934
 31
0.0
  0
LINE
  5
14F
330
1F
100
AcDbEntity
  8
Sichtbare_Kanten_TC_020513_DIN_
  6
Continuous
 62
     7
100
AcDbLine
 10
386.2831783492595
 20
129.223313541934
 30
0.0
 11
386.2831783492595
 21
126.423313541934
 31
0.0
  0
LINE
  5
150
330
1F
100
AcDbEntity
  8
Sichtbare_Kanten_TC_020513_DIN_
  6
Continuous
 62
     7
100
AcDbLine
 10
486.322695661236
 20
143.588759107031
 30
0.0
 11
485.612153848148
 21
143.257428018149
 31
0.0
  0
LINE
  5
151
330
1F
100
AcDbEntity
  8
Sichtbare_Kanten_TC_020513_DIN_
  6
Continuous
 62
     7
100
AcDbLine
 10
486.880984749999
 20
143.849093584586
 30
0.0
 11
486.322695661236
 21
143.588759107031
 31
0.0
  0
LINE
  5
152
330
1F
100
AcDbEntity
  8
Sichtbare_Kanten_TC_020513_DIN_
  6
Continuous
 62
     7
100
AcDbLine
 10
486.133811798913
 20
144.440759151023
 30
0.0
 11
486.74981565185
 21
144.440759151023
 31
0.0
  0
LINE
  5
153
330
1F
100
AcDbEntity
  8
Sichtbare_Kanten_TC_020513_DIN_
  6
Continuous
 62
     7
100
AcDbLine
 10
485.34981565185
 20
144.440759151023
 30
0.0
 11
486.133811798913
 21
144.440759151023
 31
0.0
  0
LINE
  5
154
330
1F
100
AcDbEntity
  8
Sichtbare_Kanten_TC_020513_DIN_
  6
Continuous
 62
     7
100
AcDbLine
 10
454.08317834926
 20
128.502295929518
 30
0.0
 11
454.08317834926
 21
128.402295929518
 31
0.0
  0
LINE
  5
155
330
1F
100
AcDbEntity
  8
Sichtbare_Kanten_TC_020513_DIN_
  6
Continuous
 62
     7
100
AcDbLine
 10
456.98317834926
 20
128.402295929518
 30
0.0
 11
456.98317834926
 21
128.502295929518
 31
0.0
  0
LINE
  5
156
330
1F
100
AcDbEntity
  8
Sichtbare_Kanten_TC_020513_DIN_
  6
Continuous
 62
     7
100
AcDbLine
 10
456.98317834926
 20
128.639950844525
 30
0.0
 11
456.98317834926
 21
128.502295929518
 31
0.0
  0
LINE
  5
157
330
1F
100
AcDbEntity
  8
Sichtbare_Kanten_TC_020513_DIN_
  6
Continuous
 62
     7
100
AcDbLine
 10
457.019319010894
 20
128.639950844525
 30
0.0
 11
456.98317834926
 21
128.639950844525
 31
0.0
  0
LINE
  5
158
330
1F
100
AcDbEntity
  8
Sichtbare_Kanten_TC_020513_DIN_
  6
Continuous
 62
     7
100
AcDbLine
 10
467.971324110979
 20
141.683528715899
 30
0.0
 11
467.844223755654
 21
140.230765006828
 31
0.0
  0
LINE
  5
159
330
1F
100
AcDbEntity
  8
Sichtbare_Kanten_TC_020513_DIN_
  6
Continuous
 62
     7
100
AcDbLine
 10
478.272987177067
 20
150.032100607618
 30
0.0
 11
468.159230287832
 21
142.032100607618
 31
0.0
  0
LINE
  5
15A
330
1F
100
AcDbEntity
  8
Sichtbare_Kanten_TC_020513_DIN_
  6
Continuous
 62
     7
100
AcDbLine
 10
481.798878823074
 20
146.380553835135
 30
0.0
 11
478.975328112352
 21
149.950142016718
 31
0.0
  0
LINE
  5
15B
330
1F
100
AcDbEntity
  8
Sichtbare_Kanten_TC_020513_DIN_
  6
Continuous
 62
     7
100
AcDbLine
 10
483.94981565185
 20
146.00093617952
 30
0.0
 11
482.5831783492599
 21
146.00093617952
 31
0.0
  0
LINE
  5
15C
330
1F
100
AcDbEntity
  8
Sichtbare_Kanten_TC_020513_DIN_
  6
Continuous
 62
     7
100
AcDbLine
 10
480.608623875689
 20
158.483412113315
 30
0.0
 11
483.94981565185
 21
156.436192428717
 31
0.0
  0
LINE
  5
15D
330
1F
100
AcDbEntity
  8
Sichtbare_Kanten_TC_020513_DIN_
  6
Continuous
 62
     7
100
AcDbLine
 10
454.322896668431
 20
163.639950844525
 30
0.0
 11
462.322896668431
 21
163.639950844525
 31
0.0
  0
LINE
  5
15E
330
1F
100
AcDbEntity
  8
Sichtbare_Kanten_TC_020513_DIN_
  6
Continuous
 62
     7
100
AcDbLine
 10
463.870180304929
 20
150.313161111539
 30
0.0
 11
462.804535296436
 21
153.198843247653
 31
0.0
  0
LINE
  5
15F
330
1F
100
AcDbEntity
  8
Sichtbare_Kanten_TC_020513_DIN_
  6
Continuous
 62
     7
100
AcDbLine
 10
461.58317834926
 20
146.639950844525
 30
0.0
 11
463.812056285596
 21
149.855085375224
 31
0.0
  0
LINE
  5
160
330
1F
100
AcDbEntity
  8
Sichtbare_Kanten_TC_020513_DIN_
  6
Continuous
 62
     7
100
AcDbLine
 10
461.58317834926
 20
144.964506164862
 30
0.0
 11
461.58317834926
 21
146.639950844525
 31
0.0
  0
LINE
  5
161
330
1F
100
AcDbEntity
  8
Sichtbare_Kanten_TC_020513_DIN_
  6
Continuous
 62
     7
100
AcDbLine
 10
454.08317834926
 20
128.502295929518
 30
0.0
 11
454.08317834926
 21
128.541338663391
 31
0.0
  0
LINE
  5
162
330
1F
100
AcDbEntity
  8
Sichtbare_Kanten_TC_020513_DIN_
  6
Continuous
 62
     7
100
AcDbLine
 10
486.74981565185
 20
144.440759151023
 30
0.0
 11
486.74981565185
 21
145.815640940796
 31
0.0
  0
LINE
  5
163
330
1F
100
AcDbEntity
  8
Sichtbare_Kanten_TC_020513_DIN_
  6
Continuous
 62
     7
100
AcDbLine
 10
485.34981565185
 20
145.815640940796
 30
0.0
 11
485.34981565185
 21
144.440759151023
 31
0.0
  0
LINE
  5
164
330
1F
100
AcDbEntity
  8
Sichtbare_Kanten_TC_020513_DIN_
  6
Continuous
 62
     7
100
AcDbLine
 10
485.34981565185
 20
146.00093617952
 30
0.0
 11
485.34981565185
 21
145.815640940796
 31
0.0
  0
LINE
  5
165
330
1F
100
AcDbEntity
  8
Sichtbare_Kanten_TC_020513_DIN_
  6
Continuous
 62
     7
100
AcDbLine
 10
486.74981565185
 20
145.815640940796
 30
0.0
 11
486.74981565185
 21
146.00093617952
 31
0.0
  0
LINE
  5
166
330
1F
100
AcDbEntity
  8
Sichtbare_Kanten_TC_020513_DIN_
  6
Continuous
 62
     7
100
AcDbLine
 10
493.0840910446459
 20
157.217573482111
 30
0.0
 11
494.5664529544409
 21
157.217573482111
 31
0.0
  0
LINE
  5
167
330
1F
100
AcDbEntity
  8
Sichtbare_Kanten_TC_020513_DIN_
  6
Continuous
 62
     7
100
AcDbLine
 10
494.5664529544409
 20
155.817573482111
 30
0.0
 11
493.0840910446459
 21
155.817573482111
 31
0.0
  0
LINE
  5
168
330
1F
100
AcDbEntity
  8
Sichtbare_Kanten_TC_020513_DIN_
  6
Continuous
 62
     7
100
AcDbLine
 10
494.5664529544409
 20
155.817573482111
 30
0.0
 11
494.5664529544409
 21
157.217573482111
 31
0.0
  0
LINE
  5
169
330
1F
100
AcDbEntity
  8
Sichtbare_Kanten_TC_020513_DIN_
  6
Continuous
 62
     7
100
AcDbLine
 10
488.14981565185
 20
155.817573482111
 30
0.0
 11
493.0840910446459
 21
155.817573482111
 31
0.0
  0
LINE
  5
16A
330
1F
100
AcDbEntity
  8
Sichtbare_Kanten_TC_020513_DIN_
  6
Continuous
 62
     7
100
AcDbLine
 10
493.0840910446459
 20
157.217573482111
 30
0.0
 11
488.14981565185
 21
157.217573482111
 31
0.0
  0
LINE
  5
16B
330
1F
100
AcDbEntity
  8
Sichtbare_Kanten_TC_020513_DIN_
  6
Continuous
 62
     7
100
AcDbLine
 10
456.98317834926
 20
127.002295929518
 30
0.0
 11
456.48317834926
 21
127.002295929518
 31
0.0
  0
LINE
  5
16C
330
1F
100
AcDbEntity
  8
Sichtbare_Kanten_TC_020513_DIN_
  6
Continuous
 62
     7
100
AcDbLine
 10
456.98317834926
 20
128.402295929518
 30
0.0
 11
456.98317834926
 21
127.002295929518
 31
0.0
  0
LINE
  5
16D
330
1F
100
AcDbEntity
  8
Sichtbare_Kanten_TC_020513_DIN_
  6
Continuous
 62
     7
100
AcDbLine
 10
456.48317834926
 20
128.402295929518
 30
0.0
 11
456.98317834926
 21
128.402295929518
 31
0.0
  0
LINE
  5
16E
330
1F
100
AcDbEntity
  8
Sichtbare_Kanten_TC_020513_DIN_
  6
Continuous
 62
     7
100
AcDbLine
 10
454.58317834926
 20
127.002295929518
 30
0.0
 11
456.48317834926
 21
127.002295929518
 31
0.0
  0
LINE
  5
16F
330
1F
100
AcDbEntity
  8
Sichtbare_Kanten_TC_020513_DIN_
  6
Continuous
 62
     7
100
AcDbLine
 10
456.48317834926
 20
128.402295929518
 30
0.0
 11
454.58317834926
 21
128.402295929518
 31
0.0
  0
LINE
  5
170
330
1F
100
AcDbEntity
  8
Sichtbare_Kanten_TC_020513_DIN_
  6
Continuous
 62
     7
100
AcDbLine
 10
454.58317834926
 20
127.002295929518
 30
0.0
 11
454.08317834926
 21
127.002295929518
 31
0.0
  0
LINE
  5
171
330
1F
100
AcDbEntity
  8
Sichtbare_Kanten_TC_020513_DIN_
  6
Continuous
 62
     7
100
AcDbLine
 10
454.08317834926
 20
128.402295929518
 30
0.0
 11
454.58317834926
 21
128.402295929518
 31
0.0
  0
LINE
  5
172
330
1F
100
AcDbEntity
  8
Sichtbare_Kanten_TC_020513_DIN_
  6
Continuous
 62
     7
100
AcDbLine
 10
454.08317834926
 20
128.402295929518
 30
0.0
 11
454.08317834926
 21
127.002295929518
 31
0.0
  0
LINE
  5
173
330
1F
100
AcDbEntity
  8
Sichtbare_Kanten_TC_020513_DIN_
  6
Continuous
 62
     7
100
AcDbLine
 10
488.8072227223829
 20
136.405580705846
 30
0.0
 11
488.180749508795
 21
137.7490568479
 31
0.0
  0
LINE
  5
174
330
1F
100
AcDbEntity
  8
Sichtbare_Kanten_TC_020513_DIN_
  6
Continuous
 62
     7
100
AcDbLine
 10
490.076053624235
 20
136.997246272283
 30
0.0
 11
488.8072227223829
 21
136.405580705846
 31
0.0
  0
LINE
  5
175
330
1F
100
AcDbEntity
  8
Sichtbare_Kanten_TC_020513_DIN_
  6
Continuous
 62
     7
100
AcDbLine
 10
489.4495804106459
 20
138.340722414337
 30
0.0
 11
490.076053624235
 21
136.997246272283
 31
0.0
  0
LINE
  5
176
330
1F
100
AcDbEntity
  8
Sichtbare_Kanten_TC_020513_DIN_
  6
Continuous
 62
     7
100
AcDbLine
 10
485.612153848148
 20
143.257428018149
 30
0.0
 11
488.180749508795
 21
137.7490568479
 31
0.0
  0
LINE
  5
177
330
1F
100
AcDbEntity
  8
Sichtbare_Kanten_TC_020513_DIN_
  6
Continuous
 62
     7
100
AcDbLine
 10
489.4495804106459
 20
138.340722414337
 30
0.0
 11
486.880984749999
 21
143.849093584586
 31
0.0
  0
LINE
  5
178
330
1F
100
AcDbEntity
  8
Sichtbare_Kanten_TC_020513_DIN_
  6
Continuous
 62
     7
100
AcDbLine
 10
488.14981565185
 20
156.433574612392
 30
0.0
 11
488.14981565185
 21
155.817573482111
 31
0.0
  0
LINE
  5
179
330
1F
100
AcDbEntity
  8
Sichtbare_Kanten_TC_020513_DIN_
  6
Continuous
 62
     7
100
AcDbLine
 10
488.14981565185
 20
157.217573482111
 30
0.0
 11
488.14981565185
 21
156.433574612392
 31
0.0
  0
LINE
  5
17A
330
1F
100
AcDbEntity
  8
Sichtbare_Kanten_TC_020513_DIN_
  6
Continuous
 62
     7
100
AcDbLine
 10
485.442314299436
 20
156.00093617952
 30
0.0
 11
486.389964586205
 21
156.00093617952
 31
0.0
  0
LINE
  5
17B
330
1F
100
AcDbEntity
  8
Sichtbare_Kanten_TC_020513_DIN_
  6
Continuous
 62
     7
100
AcDbLine
 10
486.74981565185
 20
146.00093617952
 30
0.0
 11
483.94981565185
 21
146.00093617952
 31
0.0
  0
LINE
  5
17C
330
1F
100
AcDbEntity
  8
Sichtbare_Kanten_TC_020513_DIN_
  6
Continuous
 62
     7
100
AcDbLine
 10
486.74981565185
 20
155.32514629929
 30
0.0
 11
486.74981565185
 21
146.00093617952
 31
0.0
  0
LINE
  5
17D
330
1F
100
AcDbEntity
  8
Sichtbare_Kanten_TC_020513_DIN_
  6
Continuous
 62
     7
100
AcDbLine
 10
382.8436610372818
 20
143.588759107032
 30
0.0
 11
382.28537194852
 21
143.849093584586
 31
0.0
  0
LINE
  5
17E
330
1F
100
AcDbEntity
  8
Sichtbare_Kanten_TC_020513_DIN_
  6
Continuous
 62
     7
100
AcDbLine
 10
383.5542028503713
 20
143.257428018149
 30
0.0
 11
382.8436610372818
 21
143.588759107032
 31
0.0
  0
LINE
  5
17F
330
1F
100
AcDbEntity
  8
Sichtbare_Kanten_TC_020513_DIN_
  6
Continuous
 62
     7
100
AcDbLine
 10
383.0325448996058
 20
144.440759151023
 30
0.0
 11
383.8165410466687
 21
144.440759151023
 31
0.0
  0
LINE
  5
180
330
1F
100
AcDbEntity
  8
Sichtbare_Kanten_TC_020513_DIN_
  6
Continuous
 62
     7
100
AcDbLine
 10
382.4165410466688
 20
144.440759151023
 30
0.0
 11
383.0325448996058
 21
144.440759151023
 31
0.0
  0
LINE
  5
181
330
1F
100
AcDbEntity
  8
Sichtbare_Kanten_TC_020513_DIN_
  6
Continuous
 62
     7
100
AcDbLine
 10
412.1831783492595
 20
128.502295929518
 30
0.0
 11
412.1831783492595
 21
128.402295929518
 31
0.0
  0
LINE
  5
182
330
1F
100
AcDbEntity
  8
Sichtbare_Kanten_TC_020513_DIN_
  6
Continuous
 62
     7
100
AcDbLine
 10
415.0831783492595
 20
128.402295929518
 30
0.0
 11
415.0831783492595
 21
128.502295929518
 31
0.0
  0
LINE
  5
183
330
1F
100
AcDbEntity
  8
Sichtbare_Kanten_TC_020513_DIN_
  6
Continuous
 62
     7
100
AcDbLine
 10
381.0165410466686
 20
156.433574612393
 30
0.0
 11
381.0165410466686
 21
157.217573482111
 31
0.0
  0
LINE
  5
184
330
1F
100
AcDbEntity
  8
Sichtbare_Kanten_TC_020513_DIN_
  6
Continuous
 62
     7
100
AcDbLine
 10
381.0165410466686
 20
155.817573482111
 30
0.0
 11
381.0165410466686
 21
156.433574612393
 31
0.0
  0
LINE
  5
185
330
1F
100
AcDbEntity
  8
Sichtbare_Kanten_TC_020513_DIN_
  6
Continuous
 62
     7
100
AcDbLine
 10
382.7763921123139
 20
156.00093617952
 30
0.0
 11
383.7240423990832
 21
156.00093617952
 31
0.0
  0
LINE
  5
186
330
1F
100
AcDbEntity
  8
Sichtbare_Kanten_TC_020513_DIN_
  6
Continuous
 62
     7
100
AcDbLine
 10
382.4165410466687
 20
146.00093617952
 30
0.0
 11
382.4165410466687
 21
155.32514629929
 31
0.0
  0
LINE
  5
187
330
1F
100
AcDbEntity
  8
Sichtbare_Kanten_TC_020513_DIN_
  6
Continuous
 62
     7
100
AcDbLine
 10
385.2165410466687
 20
146.00093617952
 30
0.0
 11
382.4165410466687
 21
146.00093617952
 31
0.0
  0
LINE
  5
188
330
1F
100
AcDbEntity
  8
Sichtbare_Kanten_TC_020513_DIN_
  6
Continuous
 62
     7
100
AcDbLine
 10
611.866587689402
 20
82.6399508445251
 30
0.0
 11
554.866587689402
 21
82.6399508445251
 31
0.0
  0
LINE
  5
189
330
1F
100
AcDbEntity
  8
Sichtbare_Kanten_TC_020513_DIN_
  6
Continuous
 62
     7
100
AcDbLine
 10
568.226587689402
 20
86.6399508445251
 30
0.0
 11
554.866587689402
 21
86.6399508445251
 31
0.0
  0
LINE
  5
18A
330
1F
100
AcDbEntity
  8
Sichtbare_Kanten_TC_020513_DIN_
  6
Continuous
 62
     7
100
AcDbLine
 10
611.866587689402
 20
86.6399508445251
 30
0.0
 11
598.506587689402
 21
86.6399508445251
 31
0.0
  0
LINE
  5
18B
330
1F
100
AcDbEntity
  8
Sichtbare_Kanten_TC_020513_DIN_
  6
Continuous
 62
     7
100
AcDbLine
 10
554.866587689402
 20
82.6399508445251
 30
0.0
 11
554.866587689402
 21
86.6399508445251
 31
0.0
  0
LINE
  5
18C
330
1F
100
AcDbEntity
  8
Sichtbare_Kanten_TC_020513_DIN_
  6
Continuous
 62
     7
100
AcDbLine
 10
611.866587689402
 20
82.6399508445251
 30
0.0
 11
611.866587689402
 21
86.6399508445251
 31
0.0
  0
LINE
  5
18D
330
1F
100
AcDbEntity
  8
Sichtbare_Kanten_TC_020513_DIN_
  6
Continuous
 62
     7
100
AcDbLine
 10
605.616587689408
 20
86.6399508445251
 30
0.0
 11
605.616587689408
 21
126.423313541934
 31
0.0
  0
LINE
  5
18E
330
1F
100
AcDbEntity
  8
Sichtbare_Kanten_TC_020513_DIN_
  6
Continuous
 62
     7
100
AcDbLine
 10
605.616587689408
 20
127.823313541934
 30
0.0
 11
605.616587689408
 21
141.639950844525
 31
0.0
  0
LINE
  5
18F
330
1F
100
AcDbEntity
  8
Sichtbare_Kanten_TC_020513_DIN_
  6
Continuous
 62
     7
100
AcDbLine
 10
561.116587689407
 20
141.639950844525
 30
0.0
 11
567.116587689406
 21
141.639950844525
 31
0.0
  0
LINE
  5
190
330
1F
100
AcDbEntity
  8
Sichtbare_Kanten_TC_020513_DIN_
  6
Continuous
 62
     7
100
AcDbLine
 10
561.116587689407
 20
86.6399508445251
 30
0.0
 11
561.116587689407
 21
126.423313541934
 31
0.0
  0
LINE
  5
191
330
1F
100
AcDbEntity
  8
Sichtbare_Kanten_TC_020513_DIN_
  6
Continuous
 62
     7
100
AcDbLine
 10
561.116587689407
 20
127.823313541934
 30
0.0
 11
561.116587689407
 21
141.639950844525
 31
0.0
  0
LINE
  5
192
330
1F
100
AcDbEntity
  8
Sichtbare_Kanten_TC_020513_DIN_
  6
Continuous
 62
     7
100
AcDbLine
 10
599.616587689406
 20
141.639950844525
 30
0.0
 11
598.576164176409
 21
141.639950844525
 31
0.0
  0
LINE
  5
193
330
1F
100
AcDbEntity
  8
Sichtbare_Kanten_TC_020513_DIN_
  6
Continuous
 62
     7
100
AcDbLine
 10
568.1570112024019
 20
141.639950844525
 30
0.0
 11
567.116587689406
 21
141.639950844525
 31
0.0
  0
LINE
  5
194
330
1F
100
AcDbEntity
  8
Sichtbare_Kanten_TC_020513_DIN_
  6
Continuous
 62
     7
100
AcDbLine
 10
599.616587689406
 20
141.639950844525
 30
0.0
 11
605.616587689408
 21
141.639950844525
 31
0.0
  0
LINE
  5
195
330
1F
100
AcDbEntity
  8
Sichtbare_Kanten_TC_020513_DIN_
  6
Continuous
 62
     7
100
AcDbLine
 10
598.506587689402
 20
102.0299508445251
 30
0.0
 11
598.506587689402
 21
86.6399508445251
 31
0.0
  0
LINE
  5
196
330
1F
100
AcDbEntity
  8
Sichtbare_Kanten_TC_020513_DIN_
  6
Continuous
 62
     7
100
AcDbLine
 10
568.226587689402
 20
86.6399508445251
 30
0.0
 11
568.226587689402
 21
102.0299508445251
 31
0.0
  0
LINE
  5
197
330
1F
100
AcDbEntity
  8
Sichtbare_Kanten_TC_020513_DIN_
  6
Continuous
 62
     7
100
AcDbLine
 10
561.3165876894079
 20
145.639950844525
 30
0.0
 11
561.3165876894079
 21
141.639950844525
 31
0.0
  0
LINE
  5
198
330
1F
100
AcDbEntity
  8
Sichtbare_Kanten_TC_020513_DIN_
  6
Continuous
 62
     7
100
AcDbLine
 10
567.116587689406
 20
145.639950844525
 30
0.0
 11
561.3165876894079
 21
145.639950844525
 31
0.0
  0
LINE
  5
199
330
1F
100
AcDbEntity
  8
Sichtbare_Kanten_TC_020513_DIN_
  6
Continuous
 62
     7
100
AcDbLine
 10
567.116587689406
 20
145.639950844525
 30
0.0
 11
567.1217824679829
 21
145.639950844525
 31
0.0
  0
LINE
  5
19A
330
1F
100
AcDbEntity
  8
Sichtbare_Kanten_TC_020513_DIN_
  6
Continuous
 62
     7
100
AcDbLine
 10
599.611392910829
 20
145.639950844525
 30
0.0
 11
599.616587689406
 21
145.639950844525
 31
0.0
  0
LINE
  5
19B
330
1F
100
AcDbEntity
  8
Sichtbare_Kanten_TC_020513_DIN_
  6
Continuous
 62
     7
100
AcDbLine
 10
605.416587689408
 20
145.639950844525
 30
0.0
 11
605.416587689408
 21
141.639950844525
 31
0.0
  0
LINE
  5
19C
330
1F
100
AcDbEntity
  8
Sichtbare_Kanten_TC_020513_DIN_
  6
Continuous
 62
     7
100
AcDbLine
 10
605.416587689408
 20
145.639950844525
 30
0.0
 11
599.616587689406
 21
145.639950844525
 31
0.0
  0
LINE
  5
19D
330
1F
100
AcDbEntity
  8
Sichtbare_Kanten_TC_020513_DIN_
  6
Continuous
 62
     7
100
AcDbLine
 10
605.7165876894119
 20
136.139950844525
 30
0.0
 11
605.7165876894119
 21
141.139950844525
 31
0.0
  0
LINE
  5
19E
330
1F
100
AcDbEntity
  8
Sichtbare_Kanten_TC_020513_DIN_
  6
Continuous
 62
     7
100
AcDbLine
 10
610.4665876894119
 20
134.639950844525
 30
0.0
 11
610.4665876894119
 21
142.639950844525
 31
0.0
  0
LINE
  5
19F
330
1F
100
AcDbEntity
  8
Sichtbare_Kanten_TC_020513_DIN_
  6
Continuous
 62
     7
100
AcDbLine
 10
611.8665876894129
 20
134.639950844525
 30
0.0
 11
611.8665876894129
 21
142.639950844525
 31
0.0
  0
LINE
  5
1A0
330
1F
100
AcDbEntity
  8
Sichtbare_Kanten_TC_020513_DIN_
  6
Continuous
 62
     7
100
AcDbLine
 10
561.016587689412
 20
136.139950844525
 30
0.0
 11
561.016587689412
 21
141.139950844525
 31
0.0
  0
LINE
  5
1A1
330
1F
100
AcDbEntity
  8
Sichtbare_Kanten_TC_020513_DIN_
  6
Continuous
 62
     7
100
AcDbLine
 10
556.266587689412
 20
134.639950844525
 30
0.0
 11
556.266587689412
 21
142.639950844525
 31
0.0
  0
LINE
  5
1A2
330
1F
100
AcDbEntity
  8
Sichtbare_Kanten_TC_020513_DIN_
  6
Continuous
 62
     7
100
AcDbLine
 10
554.866587689412
 20
134.639950844525
 30
0.0
 11
554.866587689412
 21
142.639950844525
 31
0.0
  0
LINE
  5
1A3
330
1F
100
AcDbEntity
  8
Sichtbare_Kanten_TC_020513_DIN_
  6
Continuous
 62
     7
100
AcDbLine
 10
605.6165876894129
 20
140.139950844525
 30
0.0
 11
605.7165876894119
 21
140.139950844525
 31
0.0
  0
LINE
  5
1A4
330
1F
100
AcDbEntity
  8
Sichtbare_Kanten_TC_020513_DIN_
  6
Continuous
 62
     7
100
AcDbLine
 10
605.6165876894129
 20
137.139950844525
 30
0.0
 11
605.7165876894119
 21
137.139950844525
 31
0.0
  0
LINE
  5
1A5
330
1F
100
AcDbEntity
  8
Sichtbare_Kanten_TC_020513_DIN_
  6
Continuous
 62
     7
100
AcDbLine
 10
609.8665876894129
 20
141.139950844525
 30
0.0
 11
610.4665876894119
 21
141.139950844525
 31
0.0
  0
LINE
  5
1A6
330
1F
100
AcDbEntity
  8
Sichtbare_Kanten_TC_020513_DIN_
  6
Continuous
 62
     7
100
AcDbLine
 10
609.8665876894129
 20
136.139950844525
 30
0.0
 11
610.4665876894119
 21
136.139950844525
 31
0.0
  0
LINE
  5
1A7
330
1F
100
AcDbEntity
  8
Sichtbare_Kanten_TC_020513_DIN_
  6
Continuous
 62
     7
100
AcDbLine
 10
605.7165876894119
 20
141.139950844525
 30
0.0
 11
605.766587689412
 21
141.139950844525
 31
0.0
  0
LINE
  5
1A8
330
1F
100
AcDbEntity
  8
Sichtbare_Kanten_TC_020513_DIN_
  6
Continuous
 62
     7
100
AcDbLine
 10
607.1665876894119
 20
141.139950844525
 30
0.0
 11
608.4665876894119
 21
141.139950844525
 31
0.0
  0
LINE
  5
1A9
330
1F
100
AcDbEntity
  8
Sichtbare_Kanten_TC_020513_DIN_
  6
Continuous
 62
     7
100
AcDbLine
 10
605.7165876894119
 20
136.139950844525
 30
0.0
 11
605.766587689412
 21
136.139950844525
 31
0.0
  0
LINE
  5
1AA
330
1F
100
AcDbEntity
  8
Sichtbare_Kanten_TC_020513_DIN_
  6
Continuous
 62
     7
100
AcDbLine
 10
607.1665876894119
 20
136.139950844525
 30
0.0
 11
608.4665876894119
 21
136.139950844525
 31
0.0
  0
LINE
  5
1AB
330
1F
100
AcDbEntity
  8
Sichtbare_Kanten_TC_020513_DIN_
  6
Continuous
 62
     7
100
AcDbLine
 10
561.016587689412
 20
140.139950844525
 30
0.0
 11
561.116587689412
 21
140.139950844525
 31
0.0
  0
LINE
  5
1AC
330
1F
100
AcDbEntity
  8
Sichtbare_Kanten_TC_020513_DIN_
  6
Continuous
 62
     7
100
AcDbLine
 10
561.016587689412
 20
137.139950844525
 30
0.0
 11
561.116587689412
 21
137.139950844525
 31
0.0
  0
LINE
  5
1AD
330
1F
100
AcDbEntity
  8
Sichtbare_Kanten_TC_020513_DIN_
  6
Continuous
 62
     7
100
AcDbLine
 10
556.266587689412
 20
141.139950844525
 30
0.0
 11
556.866587689412
 21
141.139950844525
 31
0.0
  0
LINE
  5
1AE
330
1F
100
AcDbEntity
  8
Sichtbare_Kanten_TC_020513_DIN_
  6
Continuous
 62
     7
100
AcDbLine
 10
556.266587689412
 20
136.139950844525
 30
0.0
 11
556.866587689412
 21
136.139950844525
 31
0.0
  0
LINE
  5
1AF
330
1F
100
AcDbEntity
  8
Sichtbare_Kanten_TC_020513_DIN_
  6
Continuous
 62
     7
100
AcDbLine
 10
558.266587689412
 20
141.139950844525
 30
0.0
 11
559.5665876894129
 21
141.139950844525
 31
0.0
  0
LINE
  5
1B0
330
1F
100
AcDbEntity
  8
Sichtbare_Kanten_TC_020513_DIN_
  6
Continuous
 62
     7
100
AcDbLine
 10
560.966587689413
 20
141.139950844525
 30
0.0
 11
561.016587689412
 21
141.139950844525
 31
0.0
  0
LINE
  5
1B1
330
1F
100
AcDbEntity
  8
Sichtbare_Kanten_TC_020513_DIN_
  6
Continuous
 62
     7
100
AcDbLine
 10
558.266587689412
 20
136.139950844525
 30
0.0
 11
559.5665876894129
 21
136.139950844525
 31
0.0
  0
LINE
  5
1B2
330
1F
100
AcDbEntity
  8
Sichtbare_Kanten_TC_020513_DIN_
  6
Continuous
 62
     7
100
AcDbLine
 10
560.966587689413
 20
136.139950844525
 30
0.0
 11
561.016587689412
 21
136.139950844525
 31
0.0
  0
LINE
  5
1B3
330
1F
100
AcDbEntity
  8
Sichtbare_Kanten_TC_020513_DIN_
  6
Continuous
 62
     7
100
AcDbLine
 10
569.583224991996
 20
126.423313541934
 30
0.0
 11
569.583224991996
 21
126.323313541934
 31
0.0
  0
LINE
  5
1B4
330
1F
100
AcDbEntity
  8
Sichtbare_Kanten_TC_020513_DIN_
  6
Continuous
 62
     7
100
AcDbLine
 10
573.583224991996
 20
126.323313541934
 30
0.0
 11
573.583224991996
 21
126.423313541934
 31
0.0
  0
LINE
  5
1B5
330
1F
100
AcDbEntity
  8
Sichtbare_Kanten_TC_020513_DIN_
  6
Continuous
 62
     7
100
AcDbLine
 10
593.149950386814
 20
126.423313541934
 30
0.0
 11
593.149950386814
 21
126.323313541934
 31
0.0
  0
LINE
  5
1B6
330
1F
100
AcDbEntity
  8
Sichtbare_Kanten_TC_020513_DIN_
  6
Continuous
 62
     7
100
AcDbLine
 10
597.1499503868149
 20
126.323313541934
 30
0.0
 11
597.149950386814
 21
126.423313541934
 31
0.0
  0
LINE
  5
1B7
330
1F
100
AcDbEntity
  8
Sichtbare_Kanten_TC_020513_DIN_
  6
Continuous
 62
     7
100
AcDbLine
 10
558.26658768941
 20
126.798442411338
 30
0.0
 11
558.266587689413
 21
123.906010419919
 31
0.0
  0
LINE
  5
1B8
330
1F
100
AcDbEntity
  8
Sichtbare_Kanten_TC_020513_DIN_
  6
Continuous
 62
     7
100
AcDbLine
 10
558.266587689412
 20
145.639950844525
 30
0.0
 11
558.266587689412
 21
144.931926558104
 31
0.0
  0
LINE
  5
1B9
330
1F
100
AcDbEntity
  8
Sichtbare_Kanten_TC_020513_DIN_
  6
Continuous
 62
     7
100
AcDbLine
 10
558.266587689412
 20
144.931926558104
 30
0.0
 11
558.26658768941
 21
139.818363094433
 31
0.0
  0
LINE
  5
1BA
330
1F
100
AcDbEntity
  8
Sichtbare_Kanten_TC_020513_DIN_
  6
Continuous
 62
     7
100
AcDbLine
 10
558.26658768941
 20
139.639950844525
 30
0.0
 11
558.26658768941
 21
139.818363094433
 31
0.0
  0
LINE
  5
1BB
330
1F
100
AcDbEntity
  8
Sichtbare_Kanten_TC_020513_DIN_
  6
Continuous
 62
     7
100
AcDbLine
 10
558.26658768941
 20
139.639950844525
 30
0.0
 11
558.266587689403
 21
131.639950844525
 31
0.0
  0
LINE
  5
1BC
330
1F
100
AcDbEntity
  8
Sichtbare_Kanten_TC_020513_DIN_
  6
Continuous
 62
     7
100
AcDbLine
 10
558.266587689403
 20
129.223313541934
 30
0.0
 11
558.266587689403
 21
131.639950844525
 31
0.0
  0
LINE
  5
1BD
330
1F
100
AcDbEntity
  8
Sichtbare_Kanten_TC_020513_DIN_
  6
Continuous
 62
     7
100
AcDbLine
 10
556.866587689403
 20
129.223313541934
 30
0.0
 11
556.866587689403
 21
131.639950844525
 31
0.0
  0
LINE
  5
1BE
330
1F
100
AcDbEntity
  8
Sichtbare_Kanten_TC_020513_DIN_
  6
Continuous
 62
     7
100
AcDbLine
 10
556.866587689406
 20
139.639950844525
 30
0.0
 11
556.866587689403
 21
131.639950844525
 31
0.0
  0
LINE
  5
1BF
330
1F
100
AcDbEntity
  8
Sichtbare_Kanten_TC_020513_DIN_
  6
Continuous
 62
     7
100
AcDbLine
 10
556.866587689406
 20
139.639950844525
 30
0.0
 11
556.8665876894099
 21
139.818363094433
 31
0.0
  0
LINE
  5
1C0
330
1F
100
AcDbEntity
  8
Sichtbare_Kanten_TC_020513_DIN_
  6
Continuous
 62
     7
100
AcDbLine
 10
556.866587689412
 20
144.931926558104
 30
0.0
 11
556.8665876894099
 21
139.818363094433
 31
0.0
  0
LINE
  5
1C1
330
1F
100
AcDbEntity
  8
Sichtbare_Kanten_TC_020513_DIN_
  6
Continuous
 62
     7
100
AcDbLine
 10
556.866587689412
 20
145.639950844525
 30
0.0
 11
556.866587689412
 21
144.931926558104
 31
0.0
  0
LINE
  5
1C2
330
1F
100
AcDbEntity
  8
Sichtbare_Kanten_TC_020513_DIN_
  6
Continuous
 62
     7
100
AcDbLine
 10
556.866587689403
 20
129.223313541934
 30
0.0
 11
556.866587689413
 21
123.906010419919
 31
0.0
  0
LINE
  5
1C3
330
1F
100
AcDbEntity
  8
Sichtbare_Kanten_TC_020513_DIN_
  6
Continuous
 62
     7
100
AcDbLine
 10
556.866587689406
 20
139.639950844525
 30
0.0
 11
558.26658768941
 21
139.639950844525
 31
0.0
  0
LINE
  5
1C4
330
1F
100
AcDbEntity
  8
Sichtbare_Kanten_TC_020513_DIN_
  6
Continuous
 62
     7
100
AcDbLine
 10
563.583224991994
 20
126.423313541934
 30
0.0
 11
559.666587689403
 21
126.423313541934
 31
0.0
  0
LINE
  5
1C5
330
1F
100
AcDbEntity
  8
Sichtbare_Kanten_TC_020513_DIN_
  6
Continuous
 62
     7
100
AcDbLine
 10
563.583224991994
 20
127.823313541934
 30
0.0
 11
559.666587689403
 21
127.823313541934
 31
0.0
  0
LINE
  5
1C6
330
1F
100
AcDbEntity
  8
Sichtbare_Kanten_TC_020513_DIN_
  6
Continuous
 62
     7
100
AcDbLine
 10
564.374769816926
 20
127.823313541934
 30
0.0
 11
563.583224991994
 21
127.823313541934
 31
0.0
  0
LINE
  5
1C7
330
1F
100
AcDbEntity
  8
Sichtbare_Kanten_TC_020513_DIN_
  6
Continuous
 62
     7
100
AcDbLine
 10
564.374769816926
 20
126.423313541934
 30
0.0
 11
563.583224991994
 21
126.423313541934
 31
0.0
  0
LINE
  5
1C8
330
1F
100
AcDbEntity
  8
Sichtbare_Kanten_TC_020513_DIN_
  6
Continuous
 62
     7
100
AcDbLine
 10
564.374769816926
 20
127.823313541934
 30
0.0
 11
570.70712841638
 21
127.823313541934
 31
0.0
  0
LINE
  5
1C9
330
1F
100
AcDbEntity
  8
Sichtbare_Kanten_TC_020513_DIN_
  6
Continuous
 62
     7
100
AcDbLine
 10
564.374769816926
 20
126.423313541934
 30
0.0
 11
570.70712841638
 21
126.423313541934
 31
0.0
  0
LINE
  5
1CA
330
1F
100
AcDbEntity
  8
Sichtbare_Kanten_TC_020513_DIN_
  6
Continuous
 62
     7
100
AcDbLine
 10
569.583224991996
 20
125.485658626927
 30
0.0
 11
573.083224991996
 21
125.485658626927
 31
0.0
  0
LINE
  5
1CB
330
1F
100
AcDbEntity
  8
Sichtbare_Kanten_TC_020513_DIN_
  6
Continuous
 62
     7
100
AcDbLine
 10
573.583224991996
 20
125.985658626927
 30
0.0
 11
573.583224991996
 21
126.323313541934
 31
0.0
  0
LINE
  5
1CC
330
1F
100
AcDbEntity
  8
Sichtbare_Kanten_TC_020513_DIN_
  6
Continuous
 62
     7
100
AcDbLine
 10
569.583224991996
 20
126.323313541934
 30
0.0
 11
569.583224991996
 21
125.485658626927
 31
0.0
  0
LINE
  5
1CD
330
1F
100
AcDbEntity
  8
Sichtbare_Kanten_TC_020513_DIN_
  6
Continuous
 62
     7
100
AcDbLine
 10
603.149950386812
 20
126.423313541934
 30
0.0
 11
607.0665876894029
 21
126.423313541934
 31
0.0
  0
LINE
  5
1CE
330
1F
100
AcDbEntity
  8
Sichtbare_Kanten_TC_020513_DIN_
  6
Continuous
 62
     7
100
AcDbLine
 10
602.35840556188
 20
126.423313541934
 30
0.0
 11
603.149950386812
 21
126.423313541934
 31
0.0
  0
LINE
  5
1CF
330
1F
100
AcDbEntity
  8
Sichtbare_Kanten_TC_020513_DIN_
  6
Continuous
 62
     7
100
AcDbLine
 10
602.35840556188
 20
126.423313541934
 30
0.0
 11
596.026046962424
 21
126.423313541934
 31
0.0
  0
LINE
  5
1D0
330
1F
100
AcDbEntity
  8
Sichtbare_Kanten_TC_020513_DIN_
  6
Continuous
 62
     7
100
AcDbLine
 10
596.026046962424
 20
126.423313541934
 30
0.0
 11
570.70712841638
 21
126.423313541934
 31
0.0
  0
LINE
  5
1D1
330
1F
100
AcDbEntity
  8
Sichtbare_Kanten_TC_020513_DIN_
  6
Continuous
 62
     7
100
AcDbLine
 10
597.1499503868149
 20
125.485658626927
 30
0.0
 11
593.6499503868149
 21
125.485658626927
 31
0.0
  0
LINE
  5
1D2
330
1F
100
AcDbEntity
  8
Sichtbare_Kanten_TC_020513_DIN_
  6
Continuous
 62
     7
100
AcDbLine
 10
593.1499503868149
 20
125.985658626927
 30
0.0
 11
593.149950386814
 21
126.323313541934
 31
0.0
  0
LINE
  5
1D3
330
1F
100
AcDbEntity
  8
Sichtbare_Kanten_TC_020513_DIN_
  6
Continuous
 62
     7
100
AcDbLine
 10
597.1499503868149
 20
126.323313541934
 30
0.0
 11
597.1499503868149
 21
125.485658626927
 31
0.0
  0
LINE
  5
1D4
330
1F
100
AcDbEntity
  8
Sichtbare_Kanten_TC_020513_DIN_
  6
Continuous
 62
     7
100
AcDbLine
 10
596.026046962424
 20
127.823313541934
 30
0.0
 11
570.70712841638
 21
127.823313541934
 31
0.0
  0
LINE
  5
1D5
330
1F
100
AcDbEntity
  8
Sichtbare_Kanten_TC_020513_DIN_
  6
Continuous
 62
     7
100
AcDbLine
 10
602.35840556188
 20
127.823313541934
 30
0.0
 11
596.026046962424
 21
127.823313541934
 31
0.0
  0
LINE
  5
1D6
330
1F
100
AcDbEntity
  8
Sichtbare_Kanten_TC_020513_DIN_
  6
Continuous
 62
     7
100
AcDbLine
 10
602.35840556188
 20
127.823313541934
 30
0.0
 11
603.149950386812
 21
127.823313541934
 31
0.0
  0
LINE
  5
1D7
330
1F
100
AcDbEntity
  8
Sichtbare_Kanten_TC_020513_DIN_
  6
Continuous
 62
     7
100
AcDbLine
 10
603.149950386812
 20
127.823313541934
 30
0.0
 11
607.0665876894029
 21
127.823313541934
 31
0.0
  0
LINE
  5
1D8
330
1F
100
AcDbEntity
  8
Sichtbare_Kanten_TC_020513_DIN_
  6
Continuous
 62
     7
100
AcDbLine
 10
608.466587689403
 20
129.223313541934
 30
0.0
 11
608.466587689403
 21
131.639950844525
 31
0.0
  0
LINE
  5
1D9
330
1F
100
AcDbEntity
  8
Sichtbare_Kanten_TC_020513_DIN_
  6
Continuous
 62
     7
100
AcDbLine
 10
608.466587689405
 20
139.639950844525
 30
0.0
 11
608.466587689403
 21
131.639950844525
 31
0.0
  0
LINE
  5
1DA
330
1F
100
AcDbEntity
  8
Sichtbare_Kanten_TC_020513_DIN_
  6
Continuous
 62
     7
100
AcDbLine
 10
608.466587689405
 20
139.639950844525
 30
0.0
 11
608.46658768941
 21
139.818363094433
 31
0.0
  0
LINE
  5
1DB
330
1F
100
AcDbEntity
  8
Sichtbare_Kanten_TC_020513_DIN_
  6
Continuous
 62
     7
100
AcDbLine
 10
608.4665876894119
 20
144.931926558104
 30
0.0
 11
608.46658768941
 21
139.818363094433
 31
0.0
  0
LINE
  5
1DC
330
1F
100
AcDbEntity
  8
Sichtbare_Kanten_TC_020513_DIN_
  6
Continuous
 62
     7
100
AcDbLine
 10
608.4665876894119
 20
145.639950844525
 30
0.0
 11
608.4665876894119
 21
144.931926558104
 31
0.0
  0
LINE
  5
1DD
330
1F
100
AcDbEntity
  8
Sichtbare_Kanten_TC_020513_DIN_
  6
Continuous
 62
     7
100
AcDbLine
 10
608.46658768941
 20
126.798442411338
 30
0.0
 11
608.466587689413
 21
123.906010419919
 31
0.0
  0
LINE
  5
1DE
330
1F
100
AcDbEntity
  8
Sichtbare_Kanten_TC_020513_DIN_
  6
Continuous
 62
     7
100
AcDbLine
 10
609.8665876894099
 20
129.223313541934
 30
0.0
 11
609.8665876894129
 21
123.906010419919
 31
0.0
  0
LINE
  5
1DF
330
1F
100
AcDbEntity
  8
Sichtbare_Kanten_TC_020513_DIN_
  6
Continuous
 62
     7
100
AcDbLine
 10
609.8665876894129
 20
145.639950844525
 30
0.0
 11
609.866587689412
 21
144.931926558104
 31
0.0
  0
LINE
  5
1E0
330
1F
100
AcDbEntity
  8
Sichtbare_Kanten_TC_020513_DIN_
  6
Continuous
 62
     7
100
AcDbLine
 10
609.866587689412
 20
144.931926558104
 30
0.0
 11
609.8665876894099
 21
139.818363094433
 31
0.0
  0
LINE
  5
1E1
330
1F
100
AcDbEntity
  8
Sichtbare_Kanten_TC_020513_DIN_
  6
Continuous
 62
     7
100
AcDbLine
 10
609.8665876894099
 20
139.639950844525
 30
0.0
 11
609.8665876894099
 21
139.818363094433
 31
0.0
  0
LINE
  5
1E2
330
1F
100
AcDbEntity
  8
Sichtbare_Kanten_TC_020513_DIN_
  6
Continuous
 62
     7
100
AcDbLine
 10
609.8665876894099
 20
139.639950844525
 30
0.0
 11
609.866587689403
 21
131.639950844525
 31
0.0
  0
LINE
  5
1E3
330
1F
100
AcDbEntity
  8
Sichtbare_Kanten_TC_020513_DIN_
  6
Continuous
 62
     7
100
AcDbLine
 10
609.8665876894099
 20
129.223313541934
 30
0.0
 11
609.866587689403
 21
131.639950844525
 31
0.0
  0
LINE
  5
1E4
330
1F
100
AcDbEntity
  8
Sichtbare_Kanten_TC_020513_DIN_
  6
Continuous
 62
     7
100
AcDbLine
 10
609.8665876894099
 20
139.639950844525
 30
0.0
 11
608.466587689405
 21
139.639950844525
 31
0.0
  0
LINE
  5
1E5
330
1F
100
AcDbEntity
  8
Sichtbare_Kanten_TC_020513_DIN_
  6
Continuous
 62
     7
100
AcDbLine
 10
605.766587689413
 20
128.502295929518
 30
0.0
 11
605.766587689413
 21
128.639950844525
 31
0.0
  0
LINE
  5
1E6
330
1F
100
AcDbEntity
  8
Sichtbare_Kanten_TC_020513_DIN_
  6
Continuous
 62
     7
100
AcDbLine
 10
605.76658768941
 20
136.855549159796
 30
0.0
 11
605.766587689413
 21
128.639950844525
 31
0.0
  0
LINE
  5
1E7
330
1F
100
AcDbEntity
  8
Sichtbare_Kanten_TC_020513_DIN_
  6
Continuous
 62
     7
100
AcDbLine
 10
605.76658768941
 20
136.855549159796
 30
0.0
 11
605.76658768941
 21
141.683528715899
 31
0.0
  0
LINE
  5
1E8
330
1F
100
AcDbEntity
  8
Sichtbare_Kanten_TC_020513_DIN_
  6
Continuous
 62
     7
100
AcDbLine
 10
605.76658768941
 20
141.683528715899
 30
0.0
 11
605.76658768941
 21
142.032100607618
 31
0.0
  0
LINE
  5
1E9
330
1F
100
AcDbEntity
  8
Sichtbare_Kanten_TC_020513_DIN_
  6
Continuous
 62
     7
100
AcDbLine
 10
605.76658768941
 20
142.032100607618
 30
0.0
 11
605.766587689408
 21
146.00093617952
 31
0.0
  0
LINE
  5
1EA
330
1F
100
AcDbEntity
  8
Sichtbare_Kanten_TC_020513_DIN_
  6
Continuous
 62
     7
100
AcDbLine
 10
605.766587689405
 20
156.436192428717
 30
0.0
 11
605.7665876894059
 21
158.483412113315
 31
0.0
  0
LINE
  5
1EB
330
1F
100
AcDbEntity
  8
Sichtbare_Kanten_TC_020513_DIN_
  6
Continuous
 62
     7
100
AcDbLine
 10
605.7665876894109
 20
163.639950844525
 30
0.0
 11
605.7665876894059
 21
158.483412113315
 31
0.0
  0
LINE
  5
1EC
330
1F
100
AcDbEntity
  8
Sichtbare_Kanten_TC_020513_DIN_
  6
Continuous
 62
     7
100
AcDbLine
 10
607.166587689406
 20
158.483412113315
 30
0.0
 11
607.166587689405
 21
156.436192428717
 31
0.0
  0
LINE
  5
1ED
330
1F
100
AcDbEntity
  8
Sichtbare_Kanten_TC_020513_DIN_
  6
Continuous
 62
     7
100
AcDbLine
 10
607.166587689406
 20
158.483412113315
 30
0.0
 11
607.166587689411
 21
163.639950844525
 31
0.0
  0
LINE
  5
1EE
330
1F
100
AcDbEntity
  8
Sichtbare_Kanten_TC_020513_DIN_
  6
Continuous
 62
     7
100
AcDbLine
 10
607.166587689408
 20
146.00093617952
 30
0.0
 11
607.16658768941
 21
142.032100607618
 31
0.0
  0
LINE
  5
1EF
330
1F
100
AcDbEntity
  8
Sichtbare_Kanten_TC_020513_DIN_
  6
Continuous
 62
     7
100
AcDbLine
 10
607.16658768941
 20
142.032100607618
 30
0.0
 11
607.16658768941
 21
141.683528715899
 31
0.0
  0
LINE
  5
1F0
330
1F
100
AcDbEntity
  8
Sichtbare_Kanten_TC_020513_DIN_
  6
Continuous
 62
     7
100
AcDbLine
 10
607.16658768941
 20
141.683528715899
 30
0.0
 11
607.16658768941
 21
136.855549159796
 31
0.0
  0
LINE
  5
1F1
330
1F
100
AcDbEntity
  8
Sichtbare_Kanten_TC_020513_DIN_
  6
Continuous
 62
     7
100
AcDbLine
 10
607.1665876894119
 20
128.639950844525
 30
0.0
 11
607.16658768941
 21
136.855549159796
 31
0.0
  0
LINE
  5
1F2
330
1F
100
AcDbEntity
  8
Sichtbare_Kanten_TC_020513_DIN_
  6
Continuous
 62
     7
100
AcDbLine
 10
607.1665876894119
 20
128.639950844525
 30
0.0
 11
607.166587689413
 21
128.502295929518
 31
0.0
  0
LINE
  5
1F3
330
1F
100
AcDbEntity
  8
Sichtbare_Kanten_TC_020513_DIN_
  6
Continuous
 62
     7
100
AcDbLine
 10
607.1665876894119
 20
128.639950844525
 30
0.0
 11
605.766587689413
 21
128.639950844525
 31
0.0
  0
LINE
  5
1F4
330
1F
100
AcDbEntity
  8
Sichtbare_Kanten_TC_020513_DIN_
  6
Continuous
 62
     7
100
AcDbLine
 10
607.166587689411
 20
163.639950844525
 30
0.0
 11
605.7665876894109
 21
163.639950844525
 31
0.0
  0
LINE
  5
1F5
330
1F
100
AcDbEntity
  8
Sichtbare_Kanten_TC_020513_DIN_
  6
Continuous
 62
     7
100
AcDbLine
 10
602.789135808149
 20
154.00093617952
 30
0.0
 11
599.899950386813
 21
154.00093617952
 31
0.0
  0
LINE
  5
1F6
330
1F
100
AcDbEntity
  8
Sichtbare_Kanten_TC_020513_DIN_
  6
Continuous
 62
     7
100
AcDbLine
 10
599.290070464983
 20
144.440759151023
 30
0.0
 11
599.658468930241
 21
145.815640940796
 31
0.0
  0
LINE
  5
1F7
330
1F
100
AcDbEntity
  8
Sichtbare_Kanten_TC_020513_DIN_
  6
Continuous
 62
     7
100
AcDbLine
 10
599.899950386813
 20
146.00093617952
 30
0.0
 11
604.366587689404
 21
146.00093617952
 31
0.0
  0
LINE
  5
1F8
330
1F
100
AcDbEntity
  8
Sichtbare_Kanten_TC_020513_DIN_
  6
Continuous
 62
     7
100
AcDbLine
 10
604.366587689404
 20
155.32514629929
 30
0.0
 11
603.555180251268
 21
154.358148569834
 31
0.0
  0
LINE
  5
1F9
330
1F
100
AcDbEntity
  8
Sichtbare_Kanten_TC_020513_DIN_
  6
Continuous
 62
     7
100
AcDbLine
 10
596.4666656571519
 20
157.217573482111
 30
0.0
 11
594.534814004574
 21
157.217573482111
 31
0.0
  0
LINE
  5
1FA
330
1F
100
AcDbEntity
  8
Sichtbare_Kanten_TC_020513_DIN_
  6
Continuous
 62
     7
100
AcDbLine
 10
594.534814004574
 20
155.817573482111
 30
0.0
 11
596.4666656571519
 21
155.817573482111
 31
0.0
  0
LINE
  5
1FB
330
1F
100
AcDbEntity
  8
Sichtbare_Kanten_TC_020513_DIN_
  6
Continuous
 62
     7
100
AcDbLine
 10
596.4666656571519
 20
157.217573482111
 30
0.0
 11
597.788800763886
 21
157.217573482111
 31
0.0
  0
LINE
  5
1FC
330
1F
100
AcDbEntity
  8
Sichtbare_Kanten_TC_020513_DIN_
  6
Continuous
 62
     7
100
AcDbLine
 10
597.788800763886
 20
155.817573482111
 30
0.0
 11
596.4666656571519
 21
155.817573482111
 31
0.0
  0
LINE
  5
1FD
330
1F
100
AcDbEntity
  8
Sichtbare_Kanten_TC_020513_DIN_
  6
Continuous
 62
     7
100
AcDbLine
 10
607.266587689413
 20
128.402295929518
 30
0.0
 11
608.2005762608289
 21
128.402295929518
 31
0.0
  0
LINE
  5
1FE
330
1F
100
AcDbEntity
  8
Sichtbare_Kanten_TC_020513_DIN_
  6
Continuous
 62
     7
100
AcDbLine
 10
609.8665876894129
 20
127.002295929518
 30
0.0
 11
610.204242604421
 21
127.002295929518
 31
0.0
  0
LINE
  5
1FF
330
1F
100
AcDbEntity
  8
Sichtbare_Kanten_TC_020513_DIN_
  6
Continuous
 62
     7
100
AcDbLine
 10
610.204242604421
 20
128.402295929518
 30
0.0
 11
610.204242604421
 21
127.002295929518
 31
0.0
  0
LINE
  5
200
330
1F
100
AcDbEntity
  8
Sichtbare_Kanten_TC_020513_DIN_
  6
Continuous
 62
     7
100
AcDbLine
 10
610.204242604421
 20
128.402295929518
 30
0.0
 11
609.8665876894129
 21
128.402295929518
 31
0.0
  0
LINE
  5
201
330
1F
100
AcDbEntity
  8
Sichtbare_Kanten_TC_020513_DIN_
  6
Continuous
 62
     7
100
AcDbLine
 10
597.425824392127
 20
138.340722414337
 30
0.0
 11
599.054370044929
 21
143.849093584586
 31
0.0
  0
LINE
  5
202
330
1F
100
AcDbEntity
  8
Sichtbare_Kanten_TC_020513_DIN_
  6
Continuous
 62
     7
100
AcDbLine
 10
599.05437004493
 20
143.257428018149
 30
0.0
 11
597.425824392127
 21
137.7490568479
 31
0.0
  0
LINE
  5
203
330
1F
100
AcDbEntity
  8
Sichtbare_Kanten_TC_020513_DIN_
  6
Continuous
 62
     7
100
AcDbLine
 10
594.534814004574
 20
157.217573482111
 30
0.0
 11
572.19836137423
 21
157.217573482111
 31
0.0
  0
LINE
  5
204
330
1F
100
AcDbEntity
  8
Sichtbare_Kanten_TC_020513_DIN_
  6
Continuous
 62
     7
100
AcDbLine
 10
572.19836137423
 20
155.817573482111
 30
0.0
 11
594.534814004574
 21
155.817573482111
 31
0.0
  0
LINE
  5
205
330
1F
100
AcDbEntity
  8
Sichtbare_Kanten_TC_020513_DIN_
  6
Continuous
 62
     7
100
AcDbLine
 10
570.266509721652
 20
157.217573482111
 30
0.0
 11
568.944374614921
 21
157.217573482111
 31
0.0
  0
LINE
  5
206
330
1F
100
AcDbEntity
  8
Sichtbare_Kanten_TC_020513_DIN_
  6
Continuous
 62
     7
100
AcDbLine
 10
570.266509721652
 20
157.217573482111
 30
0.0
 11
572.19836137423
 21
157.217573482111
 31
0.0
  0
LINE
  5
207
330
1F
100
AcDbEntity
  8
Sichtbare_Kanten_TC_020513_DIN_
  6
Continuous
 62
     7
100
AcDbLine
 10
595.493972739549
 20
136.405580705846
 30
0.0
 11
571.239202639258
 21
136.405580705846
 31
0.0
  0
LINE
  5
208
330
1F
100
AcDbEntity
  8
Sichtbare_Kanten_TC_020513_DIN_
  6
Continuous
 62
     7
100
AcDbLine
 10
567.6788053338789
 20
143.257428018149
 30
0.0
 11
569.3073509866799
 21
137.7490568479
 31
0.0
  0
LINE
  5
209
330
1F
100
AcDbEntity
  8
Sichtbare_Kanten_TC_020513_DIN_
  6
Continuous
 62
     7
100
AcDbLine
 10
567.443104913825
 20
144.440759151023
 30
0.0
 11
567.074706448567
 21
145.815640940796
 31
0.0
  0
LINE
  5
20A
330
1F
100
AcDbEntity
  8
Sichtbare_Kanten_TC_020513_DIN_
  6
Continuous
 62
     7
100
AcDbLine
 10
563.9440395706599
 20
154.00093617952
 30
0.0
 11
566.8332249919949
 21
154.00093617952
 31
0.0
  0
LINE
  5
20B
330
1F
100
AcDbEntity
  8
Sichtbare_Kanten_TC_020513_DIN_
  6
Continuous
 62
     7
100
AcDbLine
 10
562.366587689404
 20
155.32514629929
 30
0.0
 11
563.177995127541
 21
154.358148569834
 31
0.0
  0
LINE
  5
20C
330
1F
100
AcDbEntity
  8
Sichtbare_Kanten_TC_020513_DIN_
  6
Continuous
 62
     7
100
AcDbLine
 10
566.8332249919949
 20
146.00093617952
 30
0.0
 11
562.366587689404
 21
146.00093617952
 31
0.0
  0
LINE
  5
20D
330
1F
100
AcDbEntity
  8
Sichtbare_Kanten_TC_020513_DIN_
  6
Continuous
 62
     7
100
AcDbLine
 10
560.966587689411
 20
163.639950844525
 30
0.0
 11
560.966587689406
 21
158.483412113315
 31
0.0
  0
LINE
  5
20E
330
1F
100
AcDbEntity
  8
Sichtbare_Kanten_TC_020513_DIN_
  6
Continuous
 62
     7
100
AcDbLine
 10
560.966587689405
 20
156.436192428717
 30
0.0
 11
560.966587689406
 21
158.483412113315
 31
0.0
  0
LINE
  5
20F
330
1F
100
AcDbEntity
  8
Sichtbare_Kanten_TC_020513_DIN_
  6
Continuous
 62
     7
100
AcDbLine
 10
560.96658768941
 20
142.032100607618
 30
0.0
 11
560.966587689408
 21
146.00093617952
 31
0.0
  0
LINE
  5
210
330
1F
100
AcDbEntity
  8
Sichtbare_Kanten_TC_020513_DIN_
  6
Continuous
 62
     7
100
AcDbLine
 10
560.96658768941
 20
141.683528715899
 30
0.0
 11
560.96658768941
 21
142.032100607618
 31
0.0
  0
LINE
  5
211
330
1F
100
AcDbEntity
  8
Sichtbare_Kanten_TC_020513_DIN_
  6
Continuous
 62
     7
100
AcDbLine
 10
560.96658768941
 20
136.855549159796
 30
0.0
 11
560.96658768941
 21
141.683528715899
 31
0.0
  0
LINE
  5
212
330
1F
100
AcDbEntity
  8
Sichtbare_Kanten_TC_020513_DIN_
  6
Continuous
 62
     7
100
AcDbLine
 10
560.96658768941
 20
136.855549159796
 30
0.0
 11
560.966587689413
 21
128.639950844525
 31
0.0
  0
LINE
  5
213
330
1F
100
AcDbEntity
  8
Sichtbare_Kanten_TC_020513_DIN_
  6
Continuous
 62
     7
100
AcDbLine
 10
560.966587689413
 20
128.502295929518
 30
0.0
 11
560.966587689413
 21
128.639950844525
 31
0.0
  0
LINE
  5
214
330
1F
100
AcDbEntity
  8
Sichtbare_Kanten_TC_020513_DIN_
  6
Continuous
 62
     7
100
AcDbLine
 10
559.5665876894129
 20
128.639950844525
 30
0.0
 11
559.5665876894129
 21
128.502295929518
 31
0.0
  0
LINE
  5
215
330
1F
100
AcDbEntity
  8
Sichtbare_Kanten_TC_020513_DIN_
  6
Continuous
 62
     7
100
AcDbLine
 10
559.5665876894129
 20
128.639950844525
 30
0.0
 11
559.56658768941
 21
136.855549159796
 31
0.0
  0
LINE
  5
216
330
1F
100
AcDbEntity
  8
Sichtbare_Kanten_TC_020513_DIN_
  6
Continuous
 62
     7
100
AcDbLine
 10
559.56658768941
 20
141.683528715899
 30
0.0
 11
559.56658768941
 21
136.855549159796
 31
0.0
  0
LINE
  5
217
330
1F
100
AcDbEntity
  8
Sichtbare_Kanten_TC_020513_DIN_
  6
Continuous
 62
     7
100
AcDbLine
 10
559.56658768941
 20
142.032100607618
 30
0.0
 11
559.56658768941
 21
141.683528715899
 31
0.0
  0
LINE
  5
218
330
1F
100
AcDbEntity
  8
Sichtbare_Kanten_TC_020513_DIN_
  6
Continuous
 62
     7
100
AcDbLine
 10
559.5665876894079
 20
146.00093617952
 30
0.0
 11
559.56658768941
 21
142.032100607618
 31
0.0
  0
LINE
  5
219
330
1F
100
AcDbEntity
  8
Sichtbare_Kanten_TC_020513_DIN_
  6
Continuous
 62
     7
100
AcDbLine
 10
559.566587689406
 20
158.483412113315
 30
0.0
 11
559.566587689405
 21
156.436192428717
 31
0.0
  0
LINE
  5
21A
330
1F
100
AcDbEntity
  8
Sichtbare_Kanten_TC_020513_DIN_
  6
Continuous
 62
     7
100
AcDbLine
 10
559.566587689406
 20
158.483412113315
 30
0.0
 11
559.566587689411
 21
163.639950844525
 31
0.0
  0
LINE
  5
21B
330
1F
100
AcDbEntity
  8
Sichtbare_Kanten_TC_020513_DIN_
  6
Continuous
 62
     7
100
AcDbLine
 10
572.19836137423
 20
155.817573482111
 30
0.0
 11
570.266509721652
 21
155.817573482111
 31
0.0
  0
LINE
  5
21C
330
1F
100
AcDbEntity
  8
Sichtbare_Kanten_TC_020513_DIN_
  6
Continuous
 62
     7
100
AcDbLine
 10
568.944374614921
 20
155.817573482111
 30
0.0
 11
570.266509721652
 21
155.817573482111
 31
0.0
  0
LINE
  5
21D
330
1F
100
AcDbEntity
  8
Sichtbare_Kanten_TC_020513_DIN_
  6
Continuous
 62
     7
100
AcDbLine
 10
559.5665876894129
 20
128.639950844525
 30
0.0
 11
560.966587689413
 21
128.639950844525
 31
0.0
  0
LINE
  5
21E
330
1F
100
AcDbEntity
  8
Sichtbare_Kanten_TC_020513_DIN_
  6
Continuous
 62
     7
100
AcDbLine
 10
559.566587689411
 20
163.639950844525
 30
0.0
 11
560.966587689411
 21
163.639950844525
 31
0.0
  0
LINE
  5
21F
330
1F
100
AcDbEntity
  8
Sichtbare_Kanten_TC_020513_DIN_
  6
Continuous
 62
     7
100
AcDbLine
 10
556.866587689413
 20
127.002295929518
 30
0.0
 11
556.528932774406
 21
127.002295929518
 31
0.0
  0
LINE
  5
220
330
1F
100
AcDbEntity
  8
Sichtbare_Kanten_TC_020513_DIN_
  6
Continuous
 62
     7
100
AcDbLine
 10
556.528932774406
 20
128.402295929518
 30
0.0
 11
556.866587689413
 21
128.402295929518
 31
0.0
  0
LINE
  5
221
330
1F
100
AcDbEntity
  8
Sichtbare_Kanten_TC_020513_DIN_
  6
Continuous
 62
     7
100
AcDbLine
 10
556.528932774406
 20
128.402295929518
 30
0.0
 11
556.528932774406
 21
127.002295929518
 31
0.0
  0
LINE
  5
222
330
1F
100
AcDbEntity
  8
Sichtbare_Kanten_TC_020513_DIN_
  6
Continuous
 62
     7
100
AcDbLine
 10
559.466587689413
 20
128.402295929518
 30
0.0
 11
558.5325991179969
 21
128.402295929518
 31
0.0
  0
LINE
  5
223
330
1F
100
AcDbEntity
  8
Sichtbare_Kanten_TC_020513_DIN_
  6
Continuous
 62
     7
100
AcDbLine
 10
569.3073509866799
 20
138.340722414337
 30
0.0
 11
567.6788053338789
 21
143.849093584586
 31
0.0
  0
LINE
  5
224
330
1F
100
AcDbEntity
  8
Sichtbare_Kanten_TC_020513_DIN_
  6
Continuous
 62
     7
100
AcDbLine
 10
571.239202639257
 20
136.997246272283
 30
0.0
 11
595.493972739548
 21
136.997246272283
 31
0.0
  0
LINE
  5
225
330
1F
100
AcDbEntity
  8
Sichtbare_Kanten_TC_020513_DIN_
  6
Continuous
 62
     7
100
AcDbLine
 10
556.866587689413
 20
123.906010419919
 30
0.0
 11
558.266587689413
 21
123.906010419919
 31
0.0
  0
LINE
  5
226
330
1F
100
AcDbEntity
  8
Sichtbare_Kanten_TC_020513_DIN_
  6
Continuous
 62
     7
100
AcDbLine
 10
556.866587689412
 20
145.639950844525
 30
0.0
 11
558.266587689412
 21
145.639950844525
 31
0.0
  0
LINE
  5
227
330
1F
100
AcDbEntity
  8
Sichtbare_Kanten_TC_020513_DIN_
  6
Continuous
 62
     7
100
AcDbLine
 10
608.466587689413
 20
123.906010419919
 30
0.0
 11
609.8665876894129
 21
123.906010419919
 31
0.0
  0
LINE
  5
228
330
1F
100
AcDbEntity
  8
Sichtbare_Kanten_TC_020513_DIN_
  6
Continuous
 62
     7
100
AcDbLine
 10
608.4665876894119
 20
145.639950844525
 30
0.0
 11
609.8665876894129
 21
145.639950844525
 31
0.0
  0
LINE
  5
229
330
1F
100
AcDbEntity
  8
Sichtbare_Kanten_TC_020513_DIN_
  6
Continuous
 62
     7
100
AcDbLine
 10
599.05437004493
 20
143.588759107032
 30
0.0
 11
599.054370044929
 21
143.849093584586
 31
0.0
  0
LINE
  5
22A
330
1F
100
AcDbEntity
  8
Sichtbare_Kanten_TC_020513_DIN_
  6
Continuous
 62
     7
100
AcDbLine
 10
599.05437004493
 20
143.257428018149
 30
0.0
 11
599.05437004493
 21
143.588759107032
 31
0.0
  0
LINE
  5
22B
330
1F
100
AcDbEntity
  8
Sichtbare_Kanten_TC_020513_DIN_
  6
Continuous
 62
     7
100
AcDbLine
 10
605.053186944013
 20
156.000936123608
 30
0.0
 11
605.739784768109
 21
156.000936123608
 31
0.0
  0
LINE
  5
22C
330
1F
100
AcDbEntity
  8
Sichtbare_Kanten_TC_020513_DIN_
  6
Continuous
 62
     7
100
AcDbLine
 10
606.382589602183
 20
156.436192428717
 30
0.0
 11
607.166587689405
 21
156.436192428717
 31
0.0
  0
LINE
  5
22D
330
1F
100
AcDbEntity
  8
Sichtbare_Kanten_TC_020513_DIN_
  6
Continuous
 62
     7
100
AcDbLine
 10
605.766587689405
 20
156.436192428717
 30
0.0
 11
606.382589602183
 21
156.436192428717
 31
0.0
  0
LINE
  5
22E
330
1F
100
AcDbEntity
  8
Sichtbare_Kanten_TC_020513_DIN_
  6
Continuous
 62
     7
100
AcDbLine
 10
605.7397858463239
 20
156.00093617952
 30
0.0
 11
606.7356482177479
 21
156.00093617952
 31
0.0
  0
LINE
  5
22F
330
1F
100
AcDbEntity
  8
Sichtbare_Kanten_TC_020513_DIN_
  6
Continuous
 62
     7
100
AcDbLine
 10
607.166587689408
 20
146.00093617952
 30
0.0
 11
604.366587689404
 21
146.00093617952
 31
0.0
  0
LINE
  5
230
330
1F
100
AcDbEntity
  8
Sichtbare_Kanten_TC_020513_DIN_
  6
Continuous
 62
     7
100
AcDbLine
 10
607.166587689405
 20
156.436192428717
 30
0.0
 11
607.166587689408
 21
146.00093617952
 31
0.0
  0
LINE
  5
231
330
1F
100
AcDbEntity
  8
Sichtbare_Kanten_TC_020513_DIN_
  6
Continuous
 62
     7
100
AcDbLine
 10
597.788800763886
 20
156.433574612393
 30
0.0
 11
597.788800763886
 21
157.217573482111
 31
0.0
  0
LINE
  5
232
330
1F
100
AcDbEntity
  8
Sichtbare_Kanten_TC_020513_DIN_
  6
Continuous
 62
     7
100
AcDbLine
 10
597.788800763886
 20
155.817573482111
 30
0.0
 11
597.788800763886
 21
156.433574612393
 31
0.0
  0
LINE
  5
233
330
1F
100
AcDbEntity
  8
Sichtbare_Kanten_TC_020513_DIN_
  6
Continuous
 62
     7
100
AcDbLine
 10
568.944374614921
 20
156.433574612392
 30
0.0
 11
568.944374614921
 21
155.817573482111
 31
0.0
  0
LINE
  5
234
330
1F
100
AcDbEntity
  8
Sichtbare_Kanten_TC_020513_DIN_
  6
Continuous
 62
     7
100
AcDbLine
 10
568.944374614921
 20
157.217573482111
 30
0.0
 11
568.944374614921
 21
156.433574612392
 31
0.0
  0
LINE
  5
235
330
1F
100
AcDbEntity
  8
Sichtbare_Kanten_TC_020513_DIN_
  6
Continuous
 62
     7
100
AcDbLine
 10
567.6788053338789
 20
143.588759107031
 30
0.0
 11
567.6788053338789
 21
143.257428018149
 31
0.0
  0
LINE
  5
236
330
1F
100
AcDbEntity
  8
Sichtbare_Kanten_TC_020513_DIN_
  6
Continuous
 62
     7
100
AcDbLine
 10
567.6788053338789
 20
143.849093584586
 30
0.0
 11
567.6788053338789
 21
143.588759107031
 31
0.0
  0
LINE
  5
237
330
1F
100
AcDbEntity
  8
Sichtbare_Kanten_TC_020513_DIN_
  6
Continuous
 62
     7
100
AcDbLine
 10
559.5665876894079
 20
146.00093617952
 30
0.0
 11
559.566587689405
 21
156.436192428717
 31
0.0
  0
LINE
  5
238
330
1F
100
AcDbEntity
  8
Sichtbare_Kanten_TC_020513_DIN_
  6
Continuous
 62
     7
100
AcDbLine
 10
560.350585776627
 20
156.436192428717
 30
0.0
 11
560.966587689405
 21
156.436192428717
 31
0.0
  0
LINE
  5
239
330
1F
100
AcDbEntity
  8
Sichtbare_Kanten_TC_020513_DIN_
  6
Continuous
 62
     7
100
AcDbLine
 10
559.566587689405
 20
156.436192428717
 30
0.0
 11
560.350585776627
 21
156.436192428717
 31
0.0
  0
LINE
  5
23A
330
1F
100
AcDbEntity
  8
Sichtbare_Kanten_TC_020513_DIN_
  6
Continuous
 62
     7
100
AcDbLine
 10
561.679988434796
 20
156.000936123608
 30
0.0
 11
560.993390610699
 21
156.000936123608
 31
0.0
  0
LINE
  5
23B
330
1F
100
AcDbEntity
  8
Sichtbare_Kanten_TC_020513_DIN_
  6
Continuous
 62
     7
100
AcDbLine
 10
559.9975271610609
 20
156.00093617952
 30
0.0
 11
560.993389532485
 21
156.00093617952
 31
0.0
  0
LINE
  5
23C
330
1F
100
AcDbEntity
  8
Sichtbare_Kanten_TC_020513_DIN_
  6
Continuous
 62
     7
100
AcDbLine
 10
562.366587689404
 20
146.00093617952
 30
0.0
 11
559.5665876894079
 21
146.00093617952
 31
0.0
  0
LINE
  5
23D
330
1F
100
AcDbEntity
  8
Mittelpunktmarkierung_TC_020513_DIN_
  6
CHAIN
 62
     7
100
AcDbLine
 10
465.78317834926
 20
138.639950844525
 30
0.0
 11
451.38317834926
 21
138.639950844525
 31
0.0
  0
LINE
  5
23E
330
1F
100
AcDbEntity
  8
Mittelpunktmarkierung_TC_020513_DIN_
  6
CHAIN
 62
     7
100
AcDbLine
 10
458.58317834926
 20
145.839950844525
 30
0.0
 11
458.58317834926
 21
131.439950844525
 31
0.0
  0
LINE
  5
23F
330
1F
100
AcDbEntity
  8
Mittelpunktmarkierung_TC_020513_DIN_
  6
CHAIN
 62
     7
100
AcDbLine
 10
417.7831783492595
 20
138.639950844525
 30
0.0
 11
403.3831783492595
 21
138.639950844525
 31
0.0
  0
LINE
  5
240
330
1F
100
AcDbEntity
  8
Mittelpunktmarkierung_TC_020513_DIN_
  6
CHAIN
 62
     7
100
AcDbLine
 10
410.5831783492595
 20
145.839950844525
 30
0.0
 11
410.5831783492595
 21
131.439950844525
 31
0.0
  0
LINE
  5
241
330
1F
100
AcDbEntity
  8
Mittelpunktmarkierung_TC_020513_DIN_
  6
CHAIN
 62
     7
100
AcDbLine
 10
417.8331783492595
 20
127.639950844525
 30
0.0
 11
409.3331783492595
 21
127.639950844525
 31
0.0
  0
LINE
  5
242
330
1F
100
AcDbEntity
  8
Mittelpunktmarkierung_TC_020513_DIN_
  6
CHAIN
 62
     7
100
AcDbLine
 10
413.5831783492595
 20
131.889950844525
 30
0.0
 11
413.5831783492595
 21
123.389950844525
 31
0.0
  0
LINE
  5
243
330
1F
100
AcDbEntity
  8
Mittelpunktmarkierung_TC_020513_DIN_
  6
CHAIN
 62
     7
100
AcDbLine
 10
459.83317834926
 20
127.639950844525
 30
0.0
 11
451.33317834926
 21
127.639950844525
 31
0.0
  0
LINE
  5
244
330
1F
100
AcDbEntity
  8
Mittelpunktmarkierung_TC_020513_DIN_
  6
CHAIN
 62
     7
100
AcDbLine
 10
455.58317834926
 20
131.889950844525
 30
0.0
 11
455.58317834926
 21
123.389950844525
 31
0.0
  0
LINE
  5
245
330
1F
100
AcDbEntity
  8
Mittelpunktmarkierung_TC_020513_DIN_
  6
CHAIN
 62
     7
100
AcDbLine
 10
600.418587689433
 20
102.0299508445251
 30
0.0
 11
566.314587689433
 21
102.0299508445251
 31
0.0
  0
LINE
  5
246
330
1F
100
AcDbEntity
  8
Mittelpunktmarkierung_TC_020513_DIN_
  6
CHAIN
 62
     7
100
AcDbLine
 10
583.366587689433
 20
119.081950844525
 30
0.0
 11
583.366587689433
 21
84.9779508445251
 31
0.0
  0
LINE
  5
247
330
1F
100
AcDbEntity
  8
Mittellinie_TC_020513_DIN_
  6
CHAIN
 62
     7
100
AcDbLine
 10
605.866587689404
 20
80.1399508445251
 30
0.0
 11
605.866587689404
 21
89.1399508445251
 31
0.0
  0
LINE
  5
248
330
1F
100
AcDbEntity
  8
Mittellinie_TC_020513_DIN_
  6
CHAIN
 62
     7
100
AcDbLine
 10
560.866587689404
 20
80.1399508445251
 30
0.0
 11
560.866587689404
 21
89.1399508445251
 31
0.0
  0
LINE
  5
249
330
1F
100
AcDbEntity
  8
Mittellinie_TC_020513_DIN_
  6
CHAIN
 62
     7
100
AcDbLine
 10
555.766587689412
 20
138.639950844525
 30
0.0
 11
563.516587689412
 21
138.639950844525
 31
0.0
  0
LINE
  5
24A
330
1F
100
AcDbEntity
  8
Mittellinie_TC_020513_DIN_
  6
CHAIN
 62
     7
100
AcDbLine
 10
553.766587689412
 20
138.639950844525
 30
0.0
 11
559.366587689412
 21
138.639950844525
 31
0.0
  0
LINE
  5
24B
330
1F
100
AcDbEntity
  8
Mittellinie_TC_020513_DIN_
  6
CHAIN
 62
     7
100
AcDbLine
 10
607.3665876894129
 20
138.639950844525
 30
0.0
 11
612.9665876894119
 21
138.639950844525
 31
0.0
  0
LINE
  5
24C
330
1F
100
AcDbEntity
  8
Mittellinie_TC_020513_DIN_
  6
CHAIN
 62
     7
100
AcDbLine
 10
603.2165876894119
 20
138.639950844525
 30
0.0
 11
610.9665876894119
 21
138.639950844525
 31
0.0
  0
LINE
  5
24D
330
1F
100
AcDbEntity
  8
Mittellinie_TC_020513_DIN_
  6
CHAIN
 62
     7
100
AcDbLine
 10
495.5831783492599
 20
102.0299508445251
 30
0.0
 11
477.583178349259
 21
102.0299508445251
 31
0.0
  0
LINE
  5
24E
330
1F
100
AcDbEntity
  8
Mittellinie_TC_020513_DIN_
  6
CHAIN
 62
     7
100
AcDbLine
 10
487.0831783492599
 20
80.1399508445251
 30
0.0
 11
487.0831783492599
 21
89.1399508445252
 31
0.0
  0
LINE
  5
24F
330
1F
100
AcDbEntity
  8
Mittellinie_TC_020513_DIN_
  6
CHAIN
 62
     7
100
AcDbLine
 10
373.5831783492595
 20
102.0299508445251
 30
0.0
 11
391.5831783492595
 21
102.0299508445251
 31
0.0
  0
LINE
  5
250
330
1F
100
AcDbEntity
  8
Mittellinie_TC_020513_DIN_
  6
CHAIN
 62
     7
100
AcDbLine
 10
382.0831783492595
 20
80.1399508445251
 30
0.0
 11
382.0831783492595
 21
89.1399508445252
 31
0.0
  0
LINE
  5
251
330
1F
100
AcDbEntity
  8
Mittellinie_TC_020513_DIN_
  6
CHAIN
 62
     7
100
AcDbLine
 10
434.5831783492595
 20
79.5284537240526
 30
0.0
 11
434.5831783492595
 21
148.917973947706
 31
0.0
  0
ARC
  5
6A2
330
1F
100
AcDbEntity
  8
Sichtbare_Kanten_TC_020513_DIN_
  6
Continuous
 62
     7
100
AcDbCircle
 10
436.5831783492595
 20
109.083617455661
 30
0.0
 40
0.25
100
AcDbArc
 50
180.0
 51
299.9706156500424
  0
ARC
  5
6A3
330
1F
100
AcDbEntity
  8
Sichtbare_Kanten_TC_020513_DIN_
  6
Continuous
 62
     7
100
AcDbCircle
 10
437.5831783492595
 20
109.660284122328
 30
0.0
 40
0.2500000000002376
100
AcDbArc
 50
299.9706156499511
 51
119.9706156499382
  0
ARC
  5
6A4
330
1F
100
AcDbEntity
  8
Sichtbare_Kanten_TC_020513_DIN_
  6
Continuous
 62
     7
100
AcDbCircle
 10
437.5831783492595
 20
110.639950844526
 30
0.0
 40
0.25
100
AcDbArc
 50
270.0
 51
90.0
  0
ARC
  5
6A5
330
1F
100
AcDbEntity
  8
Sichtbare_Kanten_TC_020513_DIN_
  6
Continuous
 62
     7
100
AcDbCircle
 10
437.5831783492595
 20
111.619617566723
 30
0.0
 40
0.2499999999994611
100
AcDbArc
 50
240.0293843499012
 51
60.02938435005056
  0
ARC
  5
6A6
330
1F
100
AcDbEntity
  8
Sichtbare_Kanten_TC_020513_DIN_
  6
Continuous
 62
     7
100
AcDbCircle
 10
436.5831783492595
 20
112.19628423339
 30
0.0
 40
0.2500000000002376
100
AcDbArc
 50
60.02938435004892
 51
180.0
  0
ARC
  5
6A7
330
1F
100
AcDbEntity
  8
Sichtbare_Kanten_TC_020513_DIN_
  6
Continuous
 62
     7
100
AcDbCircle
 10
431.5831783492595
 20
109.649950844525
 30
0.0
 40
0.25
100
AcDbArc
 50
180.0
 51
0.0
  0
ARC
  5
6A8
330
1F
100
AcDbEntity
  8
Sichtbare_Kanten_TC_020513_DIN_
  6
Continuous
 62
     7
100
AcDbCircle
 10
431.5831783492595
 20
111.629950844525
 30
0.0
 40
0.25
100
AcDbArc
 50
0.0
 51
180.0
  0
ARC
  5
6A9
330
1F
100
AcDbEntity
  8
Sichtbare_Kanten_TC_020513_DIN_
  6
Continuous
 62
     7
100
AcDbCircle
 10
432.5831783492595
 20
109.083617455661
 30
0.0
 40
0.25
100
AcDbArc
 50
180.0
 51
240.0293843499012
  0
ARC
  5
6AA
330
1F
100
AcDbEntity
  8
Sichtbare_Kanten_TC_020513_DIN_
  6
Continuous
 62
     7
100
AcDbCircle
 10
434.5831783492595
 20
107.930284122328
 30
0.0
 40
0.2499999999994611
100
AcDbArc
 50
240.0293843499012
 51
60.02938435004892
  0
ARC
  5
6AB
330
1F
100
AcDbEntity
  8
Sichtbare_Kanten_TC_020513_DIN_
  6
Continuous
 62
     7
100
AcDbCircle
 10
432.5831783492595
 20
112.19628423339
 30
0.0
 40
0.25
100
AcDbArc
 50
0.0
 51
180.0
  0
ARC
  5
6AC
330
1F
100
AcDbEntity
  8
Sichtbare_Kanten_TC_020513_DIN_
  6
Continuous
 62
     7
100
AcDbCircle
 10
435.5831783492595
 20
108.506950788995
 30
0.0
 40
0.25
100
AcDbArc
 50
180.0
 51
0.0
  0
ARC
  5
6AD
330
1F
100
AcDbEntity
  8
Sichtbare_Kanten_TC_020513_DIN_
  6
Continuous
 62
     7
100
AcDbCircle
 10
435.5831783492595
 20
112.772950900057
 30
0.0
 40
0.25
100
AcDbArc
 50
0.0
 51
143.2525021774701
  0
ARC
  5
6AE
330
1F
100
AcDbEntity
  8
Sichtbare_Kanten_TC_020513_DIN_
  6
Continuous
 62
     7
100
AcDbCircle
 10
433.5831783492595
 20
112.772950900057
 30
0.0
 40
0.249999999999727
100
AcDbArc
 50
36.74749782255331
 51
180.0
  0
ARC
  5
6AF
330
1F
100
AcDbEntity
  8
Sichtbare_Kanten_TC_020513_DIN_
  6
Continuous
 62
     7
100
AcDbCircle
 10
433.5831783492595
 20
109.649950844525
 30
0.0
 40
0.25
100
AcDbArc
 50
180.0
 51
0.0
  0
ARC
  5
6B0
330
1F
100
AcDbEntity
  8
Sichtbare_Kanten_TC_020513_DIN_
  6
Continuous
 62
     7
100
AcDbCircle
 10
481.883178349259
 20
131.639950844525
 30
0.0
 40
8.0
100
AcDbArc
 50
0.0
 51
90.0
  0
ARC
  5
6B1
330
1F
100
AcDbEntity
  8
Sichtbare_Kanten_TC_020513_DIN_
  6
Continuous
 62
     7
100
AcDbCircle
 10
468.5831783492599
 20
140.139950844525
 30
0.0
 40
0.4999999999998406
100
AcDbArc
 50
220.029018176403
 51
270.0
  0
ARC
  5
6B2
330
1F
100
AcDbEntity
  8
Sichtbare_Kanten_TC_020513_DIN_
  6
Continuous
 62
     7
100
AcDbCircle
 10
452.885943012328
 20
126.954853090736
 30
0.0
 40
20.00000000000005
100
AcDbArc
 50
40.02901817645228
 51
64.00779443620894
  0
ARC
  5
6B3
330
1F
100
AcDbEntity
  8
Sichtbare_Kanten_TC_020513_DIN_
  6
Continuous
 62
     7
100
AcDbCircle
 10
458.58317834926
 20
138.639950844525
 30
0.0
 40
6.999999999999687
100
AcDbArc
 50
64.00779443621411
 51
180.0
  0
ARC
  5
6B4
330
1F
100
AcDbEntity
  8
Sichtbare_Kanten_TC_020513_DIN_
  6
Continuous
 62
     7
100
AcDbCircle
 10
452.08317834926
 20
125.139950844525
 30
0.0
 40
0.5
100
AcDbArc
 50
180.0
 51
251.6923269006434
  0
ARC
  5
6B5
330
1F
100
AcDbEntity
  8
Sichtbare_Kanten_TC_020513_DIN_
  6
Continuous
 62
     7
100
AcDbCircle
 10
456.637912563975
 20
138.906010419919
 30
0.0
 40
14.99999999999958
100
AcDbArc
 50
251.6923269007133
 51
334.1179484035667
  0
ARC
  5
6B6
330
1F
100
AcDbEntity
  8
Sichtbare_Kanten_TC_020513_DIN_
  6
Continuous
 62
     7
100
AcDbCircle
 10
470.5831783492599
 20
132.139950844525
 30
0.0
 40
0.5
100
AcDbArc
 50
90.0
 51
154.117948403604
  0
ARC
  5
6B7
330
1F
100
AcDbEntity
  8
Sichtbare_Kanten_TC_020513_DIN_
  6
Continuous
 62
     7
100
AcDbCircle
 10
481.883178349259
 20
131.639950844525
 30
0.0
 40
1.0
100
AcDbArc
 50
0.0
 51
90.0
  0
ARC
  5
6B8
330
1F
100
AcDbEntity
  8
Sichtbare_Kanten_TC_020513_DIN_
  6
Continuous
 62
     7
100
AcDbCircle
 10
482.845523434252
 20
126.323313541934
 30
0.0
 40
0.0999999999999943
100
AcDbArc
 50
90.0
 51
180.0
  0
ARC
  5
6B9
330
1F
100
AcDbEntity
  8
Sichtbare_Kanten_TC_020513_DIN_
  6
Continuous
 62
     7
100
AcDbCircle
 10
482.845523434252
 20
126.323313541934
 30
0.0
 40
1.5
100
AcDbArc
 50
90.0
 51
180.0
  0
ARC
  5
6BA
330
1F
100
AcDbEntity
  8
Sichtbare_Kanten_TC_020513_DIN_
  6
Continuous
 62
     7
100
AcDbCircle
 10
387.2831783492595
 20
131.639950844525
 30
0.0
 40
1.0
100
AcDbArc
 50
90.0
 51
180.0
  0
ARC
  5
6BB
330
1F
100
AcDbEntity
  8
Sichtbare_Kanten_TC_020513_DIN_
  6
Continuous
 62
     7
100
AcDbCircle
 10
398.5831783492595
 20
132.139950844525
 30
0.0
 40
0.4999999999999212
100
AcDbArc
 50
25.88205159643293
 51
90.0
  0
ARC
  5
6BC
330
1F
100
AcDbEntity
  8
Sichtbare_Kanten_TC_020513_DIN_
  6
Continuous
 62
     7
100
AcDbCircle
 10
412.5284441345436
 20
138.906010419919
 30
0.0
 40
14.99999999999991
100
AcDbArc
 50
205.8820515964334
 51
288.3076730992879
  0
ARC
  5
6BD
330
1F
100
AcDbEntity
  8
Sichtbare_Kanten_TC_020513_DIN_
  6
Continuous
 62
     7
100
AcDbCircle
 10
417.0831783492595
 20
125.139950844525
 30
0.0
 40
0.4999999999996581
100
AcDbArc
 50
288.3076730992948
 51
0.0
  0
ARC
  5
6BE
330
1F
100
AcDbEntity
  8
Sichtbare_Kanten_TC_020513_DIN_
  6
Continuous
 62
     7
100
AcDbCircle
 10
410.5831783492595
 20
138.639950844525
 30
0.0
 40
7.0
100
AcDbArc
 50
0.0
 51
115.9922055637913
  0
ARC
  5
6BF
330
1F
100
AcDbEntity
  8
Sichtbare_Kanten_TC_020513_DIN_
  6
Continuous
 62
     7
100
AcDbCircle
 10
416.280413686191
 20
126.954853090736
 30
0.0
 40
19.99999999999947
100
AcDbArc
 50
115.9922055637918
 51
139.9709818235474
  0
ARC
  5
6C0
330
1F
100
AcDbEntity
  8
Sichtbare_Kanten_TC_020513_DIN_
  6
Continuous
 62
     7
100
AcDbCircle
 10
400.5831783492595
 20
140.139950844525
 30
0.0
 40
0.5
100
AcDbArc
 50
270.0
 51
319.9709818235802
  0
ARC
  5
6C1
330
1F
100
AcDbEntity
  8
Sichtbare_Kanten_TC_020513_DIN_
  6
Continuous
 62
     7
100
AcDbCircle
 10
387.2831783492595
 20
131.639950844525
 30
0.0
 40
8.0
100
AcDbArc
 50
90.0
 51
180.0
  0
ARC
  5
6C2
330
1F
100
AcDbEntity
  8
Sichtbare_Kanten_TC_020513_DIN_
  6
Continuous
 62
     7
100
AcDbCircle
 10
405.7652160543871
 20
150.139950844525
 30
0.0
 40
0.4999999999998023
100
AcDbArc
 50
159.7314654157401
 51
214.7314654156929
  0
ARC
  5
6C3
330
1F
100
AcDbEntity
  8
Sichtbare_Kanten_TC_020513_DIN_
  6
Continuous
 62
     7
100
AcDbCircle
 10
410.5831783492595
 20
151.639950844525
 30
0.0
 40
4.500000000000008
100
AcDbArc
 50
61.04497562813997
 51
159.7314654157204
  0
ARC
  5
6C4
330
1F
100
AcDbEntity
  8
Sichtbare_Kanten_TC_020513_DIN_
  6
Continuous
 62
     7
100
AcDbCircle
 10
414.8434600300876
 20
159.339950844525
 30
0.0
 40
4.299999999999947
100
AcDbArc
 50
241.0449756281411
 51
90.0
  0
ARC
  5
6C5
330
1F
100
AcDbEntity
  8
Sichtbare_Kanten_TC_020513_DIN_
  6
Continuous
 62
     7
100
AcDbCircle
 10
406.8434600300877
 20
128.639950844525
 30
0.0
 40
35.0
100
AcDbArc
 50
90.0000000000002
 51
121.4966928421464
  0
ARC
  5
6C6
330
1F
100
AcDbEntity
  8
Sichtbare_Kanten_TC_020513_DIN_
  6
Continuous
 62
     7
100
AcDbCircle
 10
386.5831783492595
 20
147.00093617952
 30
0.0
 40
1.0
100
AcDbArc
 50
270.0
 51
321.6559393353758
  0
ARC
  5
6C7
330
1F
100
AcDbEntity
  8
Sichtbare_Kanten_TC_020513_DIN_
  6
Continuous
 62
     7
100
AcDbCircle
 10
390.5831783492595
 20
149.639950844525
 30
0.0
 40
0.500000000000081
100
AcDbArc
 50
51.65593933538076
 51
141.6559393353364
  0
ARC
  5
6C8
330
1F
100
AcDbEntity
  8
Sichtbare_Kanten_TC_020513_DIN_
  6
Continuous
 62
     7
100
AcDbCircle
 10
400.696935238494
 20
141.639950844525
 30
0.0
 40
0.5000000000000482
100
AcDbArc
 50
5.00000000001893
 51
51.65593933537566
  0
ARC
  5
6C9
330
1F
100
AcDbEntity
  8
Sichtbare_Kanten_TC_020513_DIN_
  6
Continuous
 62
     7
100
AcDbCircle
 10
386.3208332642669
 20
126.323313541934
 30
0.0
 40
1.5
100
AcDbArc
 50
0.0
 51
90.0
  0
ARC
  5
6CA
330
1F
100
AcDbEntity
  8
Sichtbare_Kanten_TC_020513_DIN_
  6
Continuous
 62
     7
100
AcDbCircle
 10
386.3208332642669
 20
126.323313541934
 30
0.0
 40
0.0999999999999659
100
AcDbArc
 50
0.0
 51
90.0
  0
ARC
  5
6CB
330
1F
100
AcDbEntity
  8
Sichtbare_Kanten_TC_020513_DIN_
  6
Continuous
 62
     7
100
AcDbCircle
 10
468.4694214600249
 20
141.639950844525
 30
0.0
 40
0.5000000000002927
100
AcDbArc
 50
128.3440606646499
 51
174.9999999999805
  0
ARC
  5
6CC
330
1F
100
AcDbEntity
  8
Sichtbare_Kanten_TC_020513_DIN_
  6
Continuous
 62
     7
100
AcDbCircle
 10
478.5831783492599
 20
149.639950844525
 30
0.0
 40
0.4999999999996099
100
AcDbArc
 50
38.34406066472423
 51
128.3440606646499
  0
ARC
  5
6CD
330
1F
100
AcDbEntity
  8
Sichtbare_Kanten_TC_020513_DIN_
  6
Continuous
 62
     7
100
AcDbCircle
 10
482.5831783492599
 20
147.00093617952
 30
0.0
 40
1.000000000000047
100
AcDbArc
 50
218.3440606646161
 51
270.0
  0
ARC
  5
6CE
330
1F
100
AcDbEntity
  8
Sichtbare_Kanten_TC_020513_DIN_
  6
Continuous
 62
     7
100
AcDbCircle
 10
462.322896668431
 20
128.639950844525
 30
0.0
 40
35.00000000000035
100
AcDbArc
 50
58.50330715785255
 51
90.0
  0
ARC
  5
6CF
330
1F
100
AcDbEntity
  8
Sichtbare_Kanten_TC_020513_DIN_
  6
Continuous
 62
     7
100
AcDbCircle
 10
454.322896668431
 20
159.339950844525
 30
0.0
 40
4.300000000000011
100
AcDbArc
 50
90.0
 51
298.9550243718662
  0
ARC
  5
6D0
330
1F
100
AcDbEntity
  8
Sichtbare_Kanten_TC_020513_DIN_
  6
Continuous
 62
     7
100
AcDbCircle
 10
458.58317834926
 20
151.639950844525
 30
0.0
 40
4.500000000000132
100
AcDbArc
 50
20.26853458427986
 51
118.9550243718632
  0
ARC
  5
6D1
330
1F
100
AcDbEntity
  8
Sichtbare_Kanten_TC_020513_DIN_
  6
Continuous
 62
     7
100
AcDbCircle
 10
463.4011406441319
 20
150.139950844525
 30
0.0
 40
0.4999999999999301
100
AcDbArc
 50
325.2685345843182
 51
20.26853458426217
  0
ARC
  5
6D2
330
1F
100
AcDbEntity
  8
Sichtbare_Kanten_TC_020513_DIN_
  6
Continuous
 62
     7
100
AcDbCircle
 10
583.366587689406
 20
102.0299508445251
 30
0.0
 40
15.13999999999601
100
AcDbArc
 50
0.0
 51
180.0
  0
ARC
  5
6D3
330
1F
100
AcDbEntity
  8
Sichtbare_Kanten_TC_020513_DIN_
  6
Continuous
 62
     7
100
AcDbCircle
 10
611.1665876894119
 20
134.639950844525
 30
0.0
 40
0.7000000000000455
100
AcDbArc
 50
180.0
 51
0.0
  0
ARC
  5
6D4
330
1F
100
AcDbEntity
  8
Sichtbare_Kanten_TC_020513_DIN_
  6
Continuous
 62
     7
100
AcDbCircle
 10
611.1665876894119
 20
142.639950844525
 30
0.0
 40
0.700000000000955
100
AcDbArc
 50
0.0
 51
180.0
  0
ARC
  5
6D5
330
1F
100
AcDbEntity
  8
Sichtbare_Kanten_TC_020513_DIN_
  6
Continuous
 62
     7
100
AcDbCircle
 10
555.5665876894129
 20
142.639950844525
 30
0.0
 40
0.6999999999990223
100
AcDbArc
 50
0.0
 51
180.0
  0
ARC
  5
6D6
330
1F
100
AcDbEntity
  8
Sichtbare_Kanten_TC_020513_DIN_
  6
Continuous
 62
     7
100
AcDbCircle
 10
555.5665876894129
 20
134.639950844525
 30
0.0
 40
0.700000000000955
100
AcDbArc
 50
180.0
 51
0.0
  0
ARC
  5
6D7
330
1F
100
AcDbEntity
  8
Sichtbare_Kanten_TC_020513_DIN_
  6
Continuous
 62
     7
100
AcDbCircle
 10
559.666587689403
 20
129.223313541934
 30
0.0
 40
2.799999999999955
100
AcDbArc
 50
180.0
 51
270.0
  0
ARC
  5
6D8
330
1F
100
AcDbEntity
  8
Sichtbare_Kanten_TC_020513_DIN_
  6
Continuous
 62
     7
100
AcDbCircle
 10
559.666587689403
 20
129.223313541934
 30
0.0
 40
1.399999999999977
100
AcDbArc
 50
180.0
 51
270.0
  0
ARC
  5
6D9
330
1F
100
AcDbEntity
  8
Sichtbare_Kanten_TC_020513_DIN_
  6
Continuous
 62
     7
100
AcDbCircle
 10
573.083224991996
 20
125.985658626927
 30
0.0
 40
0.5
100
AcDbArc
 50
270.0
 51
0.0
  0
ARC
  5
6DA
330
1F
100
AcDbEntity
  8
Sichtbare_Kanten_TC_020513_DIN_
  6
Continuous
 62
     7
100
AcDbCircle
 10
593.6499503868149
 20
125.985658626927
 30
0.0
 40
0.5
100
AcDbArc
 50
180.0
 51
270.0
  0
ARC
  5
6DB
330
1F
100
AcDbEntity
  8
Sichtbare_Kanten_TC_020513_DIN_
  6
Continuous
 62
     7
100
AcDbCircle
 10
599.899950386813
 20
155.50093617952
 30
0.0
 40
1.499999999999309
100
AcDbArc
 50
226.2398789709962
 51
270.0
  0
ARC
  5
6DC
330
1F
100
AcDbEntity
  8
Sichtbare_Kanten_TC_020513_DIN_
  6
Continuous
 62
     7
100
AcDbCircle
 10
602.789135808149
 20
155.00093617952
 30
0.0
 40
1.0
100
AcDbArc
 50
270.0
 51
320.0000000000223
  0
ARC
  5
6DD
330
1F
100
AcDbEntity
  8
Sichtbare_Kanten_TC_020513_DIN_
  6
Continuous
 62
     7
100
AcDbCircle
 10
599.899950386813
 20
145.75093617952
 30
0.0
 40
0.25
100
AcDbArc
 50
90.0
 51
164.9999999999035
  0
ARC
  5
6DE
330
1F
100
AcDbEntity
  8
Sichtbare_Kanten_TC_020513_DIN_
  6
Continuous
 62
     7
100
AcDbCircle
 10
566.8332249919949
 20
155.50093617952
 30
0.0
 40
1.5
100
AcDbArc
 50
270.0
 51
313.7601210290321
  0
ARC
  5
6DF
330
1F
100
AcDbEntity
  8
Sichtbare_Kanten_TC_020513_DIN_
  6
Continuous
 62
     7
100
AcDbCircle
 10
563.9440395706599
 20
155.00093617952
 30
0.0
 40
0.9999999999996643
100
AcDbArc
 50
219.9999999999776
 51
270.0
  0
ARC
  5
6E0
330
1F
100
AcDbEntity
  8
Sichtbare_Kanten_TC_020513_DIN_
  6
Continuous
 62
     7
100
AcDbCircle
 10
566.8332249919949
 20
145.75093617952
 30
0.0
 40
0.2499999999998763
100
AcDbArc
 50
15.00000000008973
 51
90.0
  0
ARC
  5
6E1
330
1F
100
AcDbEntity
  8
Sichtbare_Kanten_TC_020513_DIN_
  6
Continuous
 62
     7
100
AcDbCircle
 10
607.0665876894029
 20
129.223313541934
 30
0.0
 40
2.800000000000011
100
AcDbArc
 50
270.0
 51
0.0
  0
ARC
  5
6E2
330
1F
100
AcDbEntity
  8
Sichtbare_Kanten_TC_020513_DIN_
  6
Continuous
 62
     7
100
AcDbCircle
 10
607.0665876894029
 20
129.223313541934
 30
0.0
 40
1.400000000000006
100
AcDbArc
 50
270.0
 51
0.0
  0
ARC
  5
6E3
330
1F
100
AcDbEntity
  8
Sichtbare_Kanten_TC_020513_DIN_
  6
Continuous
 62
     7
100
AcDbCircle
 10
607.266587689413
 20
128.502295929518
 30
0.0
 40
0.1000000000000227
100
AcDbArc
 50
180.0
 51
270.0
  0
ARC
  5
6E4
330
1F
100
AcDbEntity
  8
Sichtbare_Kanten_TC_020513_DIN_
  6
Continuous
 62
     7
100
AcDbCircle
 10
607.266587689413
 20
128.502295929518
 30
0.0
 40
1.5
100
AcDbArc
 50
180.0
 51
206.9141492018855
  0
ARC
  5
6E5
330
1F
100
AcDbEntity
  8
Sichtbare_Kanten_TC_020513_DIN_
  6
Continuous
 62
     7
100
AcDbCircle
 10
559.466587689413
 20
128.502295929518
 30
0.0
 40
0.0999999999999943
100
AcDbArc
 50
270.0
 51
0.0
  0
ARC
  5
6E6
330
1F
100
AcDbEntity
  8
Sichtbare_Kanten_TC_020513_DIN_
  6
Continuous
 62
     7
100
AcDbCircle
 10
559.466587689413
 20
128.502295929518
 30
0.0
 40
1.500000000000115
100
AcDbArc
 50
333.0858507981126
 51
0.0
  0
ARC
  5
6E7
330
1F
100
AcDbEntity
  8
Stich_1-Linien_TC_020513_DIN_
  6
DASHED_SPACE
 62
     7
100
AcDbCircle
 10
413.5831783492595
 20
127.639950844525
 30
0.0
 40
48.93394997171591
100
AcDbArc
 50
132.0836088599962
 51
180.0
  0
ARC
  5
6E8
330
1F
100
AcDbEntity
  8
Stich_1-Linien_TC_020513_DIN_
  6
DASHED_SPACE
 62
     7
100
AcDbCircle
 10
455.58317834926
 20
127.639950844525
 30
0.0
 40
48.933949971716
100
AcDbArc
 50
0.0
 51
41.39673167973005
  0
CIRCLE
  5
6E9
330
1F
100
AcDbEntity
  8
Sichtbare_Kanten_TC_020513_DIN_
  6
Continuous
 62
     7
100
AcDbCircle
 10
458.58317834926
 20
138.639950844525
 30
0.0
 40
4.700000000000045
  0
CIRCLE
  5
6EA
330
1F
100
AcDbEntity
  8
Sichtbare_Kanten_TC_020513_DIN_
  6
Continuous
 62
     7
100
AcDbCircle
 10
410.5831783492595
 20
138.639950844525
 30
0.0
 40
4.699999999999989
  0
CIRCLE
  5
6EB
330
1F
100
AcDbEntity
  8
Sichtbare_Kanten_TC_020513_DIN_
  6
Continuous
 62
     7
100
AcDbCircle
 10
455.58317834926
 20
127.639950844525
 30
0.0
 40
1.75
  0
CIRCLE
  5
6EC
330
1F
100
AcDbEntity
  8
Sichtbare_Kanten_TC_020513_DIN_
  6
Continuous
 62
     7
100
AcDbCircle
 10
413.5831783492595
 20
127.639950844525
 30
0.0
 40
1.75
  0
CIRCLE
  5
6ED
330
1F
100
AcDbEntity
  8
Sichtbare_Kanten_TC_020513_DIN_
  6
Continuous
 62
     7
100
AcDbCircle
 10
583.366587689406
 20
102.0299508445251
 30
0.0
 40
10.38999999999999
  0
CIRCLE
  5
6EE
330
1F
100
AcDbEntity
  8
Sichtbare_Kanten_TC_020513_DIN_
  6
Continuous
 62
     7
100
AcDbCircle
 10
583.366587689406
 20
102.0299508445251
 30
0.0
 40
13.38999999999601
  0
SPLINE
  5
6EF
330
1F
100
AcDbEntity
  8
Sichtbare_Kanten_TC_020513_DIN_
  6
Continuous
 62
     7
100
AcDbSpline
210
0.0
220
0.0
230
1.0
 70
     8
 71
     3
 72
    19
 73
    15
 74
    13
 42
0.000000001
 43
0.0000000001
 44
0.00000001
 40
0.0
 40
0.0
 40
0.0
 40
0.0
 40
0.3474606674146634
 40
0.6949175350295123
 40
0.866569648894707
 40
1.038221191655887
 40
1.207484861390058
 40
1.376745209809504
 40
1.543251855853038
 40
1.709751057159616
 40
1.873443934533134
 40
2.037147336109328
 40
2.278188137688014
 40
2.518986528946828
 40
2.518986528946828
 40
2.518986528946828
 40
2.518986528946828
 10
595.493972739549
 20
136.405580705846
 30
0.0
 10
595.6099045094617
 20
136.410837668238
 30
0.0
 10
595.8417667803106
 20
136.4213515502067
 30
0.0
 10
596.1238385864809
 20
136.4924248679187
 30
0.0
 10
596.3396226883153
 20
136.5729918437374
 30
0.0
 10
596.4943594366287
 20
136.6459856569823
 30
0.0
 10
596.6418362254867
 20
136.7310318270288
 30
0.0
 10
596.7802643318066
 20
136.8271915538949
 30
0.0
 10
596.9092746196382
 20
136.9342232482633
 30
0.0
 10
597.027195909727
 20
137.0507305598375
 30
0.0
 10
597.1338596352689
 20
137.1764670249732
 30
0.0
 10
597.2427348055988
 20
137.3317031834223
 30
0.0
 10
597.3478685218699
 20
137.5207256386732
 30
0.0
 10
597.3998478233797
 20
137.6729719745225
 30
0.0
 10
597.425824392127
 20
137.7490568479
 30
0.0
 11
595.493972739549
 21
136.405580705846
 31
0.0
 11
595.8403520588391
 21
136.4329719920852
 31
0.0
 11
596.1780130262002
 21
136.5148948006409
 31
0.0
 11
596.3387216453485
 21
136.5752039050421
 31
0.0
 11
596.4939727395491
 21
136.6484251454765
 31
0.0
 11
596.6405700475083
 21
136.7330384977217
 31
0.0
 11
596.7795479589219
 21
136.8296521918897
 31
0.0
 11
596.9076575301712
 21
136.9360119642217
 31
0.0
 11
597.0260616257868
 21
137.05306944778
 31
0.0
 11
597.1318579311219
 21
137.1779794161526
 31
0.0
 11
597.226023547118
 21
137.3118884928827
 31
0.0
 11
597.3412779648452
 21
137.5235889611986
 31
0.0
 11
597.425824392127
 21
137.7490568479
 31
0.0
  0
SPLINE
  5
6F0
330
1F
100
AcDbEntity
  8
Sichtbare_Kanten_TC_020513_DIN_
  6
Continuous
 62
     7
100
AcDbSpline
210
0.0
220
0.0
230
1.0
 70
     8
 71
     3
 72
    19
 73
    15
 74
    13
 42
0.000000001
 43
0.0000000001
 44
0.00000001
 40
0.0
 40
0.0
 40
0.0
 40
0.0
 40
0.347460667414963
 40
0.6949175350301334
 40
0.8665696488952517
 40
1.038221191656141
 40
1.207484861390367
 40
1.376745209809792
 40
1.543251855853472
 40
1.709751057160027
 40
1.873443934533472
 40
2.037147336109615
 40
2.278188137688218
 40
2.518986528947738
 40
2.518986528947738
 40
2.518986528947738
 40
2.518986528947738
 10
595.493972739548
 20
136.997246272283
 30
0.0
 10
595.609904509461
 20
137.0025032346747
 30
0.0
 10
595.8417667803095
 20
137.0130171166428
 30
0.0
 10
596.1238385864808
 20
137.0840904343557
 30
0.0
 10
596.3396226883146
 20
137.1646574101744
 30
0.0
 10
596.494359436628
 20
137.2376512234192
 30
0.0
 10
596.6418362254864
 20
137.3226973934653
 30
0.0
 10
596.7802643318062
 20
137.4188571203312
 30
0.0
 10
596.9092746196379
 20
137.5258888146998
 30
0.0
 10
597.027195909726
 20
137.6423961262744
 30
0.0
 10
597.1338596352682
 20
137.7681325914102
 30
0.0
 10
597.2427348055978
 20
137.9233687498591
 30
0.0
 10
597.3478685218697
 20
138.1123912051098
 30
0.0
 10
597.3998478233798
 20
138.2646375409592
 30
0.0
 10
597.425824392127
 20
138.340722414337
 30
0.0
 11
595.493972739548
 21
136.997246272283
 31
0.0
 11
595.8403520588384
 21
137.0246375585217
 31
0.0
 11
596.1780130261998
 21
137.1065603670778
 31
0.0
 11
596.338721645348
 21
137.1668694714791
 31
0.0
 11
596.4939727395483
 21
137.2400907119133
 31
0.0
 11
596.6405700475077
 21
137.3247040641582
 31
0.0
 11
596.7795479589214
 21
137.421317758326
 31
0.0
 11
596.9076575301707
 21
137.5276775306582
 31
0.0
 11
597.026061625786
 21
137.6447350142168
 31
0.0
 11
597.131857931121
 21
137.7696449825895
 31
0.0
 11
597.2260235471172
 21
137.9035540593194
 31
0.0
 11
597.3412779648448
 21
138.115254527635
 31
0.0
 11
597.425824392127
 21
138.340722414337
 31
0.0
  0
SPLINE
  5
6F1
330
1F
100
AcDbEntity
  8
Sichtbare_Kanten_TC_020513_DIN_
  6
Continuous
 62
     7
100
AcDbSpline
210
0.0
220
0.0
230
1.0
 70
     8
 71
     3
 72
    19
 73
    15
 74
    13
 42
0.000000001
 43
0.0000000001
 44
0.00000001
 40
0.0
 40
0.0
 40
0.0
 40
0.0
 40
0.3221862205370458
 40
0.64438626183447
 40
0.8094705328398915
 40
0.9745562229284999
 40
1.142463280812388
 40
1.310374909567471
 40
1.480895931773988
 40
1.651417687594336
 40
1.824033462669048
 40
1.996661195041333
 40
2.257865073019816
 40
2.518894987889494
 40
2.518894987889494
 40
2.518894987889494
 40
2.518894987889494
 10
569.3073509866799
 20
137.7490568479
 30
0.0
 10
569.3435646495576
 20
137.6476225272614
 30
0.0
 10
569.4159935422808
 20
137.4447495402261
 30
0.0
 10
569.5653851887142
 20
137.2170590967177
 30
0.0
 10
569.7057388655509
 20
137.0508828581584
 30
0.0
 10
569.824086036606
 20
136.9340660233445
 30
0.0
 10
569.9527348063991
 20
136.8273319806951
 30
0.0
 10
570.0915148187263
 20
136.7309189937647
 30
0.0
 10
570.2386489716862
 20
136.6460597995108
 30
0.0
 10
570.39369938548
 20
136.5729979970857
 30
0.0
 10
570.5548563235326
 20
136.5124960961154
 30
0.0
 10
570.7494298988217
 20
136.4572403055074
 30
0.0
 10
570.9779701732099
 20
136.4144968134454
 30
0.0
 10
571.1521444902224
 20
136.4085520767357
 30
0.0
 10
571.239202639258
 20
136.405580705846
 30
0.0
 11
569.3073509866799
 21
137.7490568479
 31
0.0
 11
569.4276153978761
 21
137.4501581471856
 31
0.0
 11
569.6008985506801
 21
137.178522698468
 31
0.0
 11
569.7075927634322
 21
137.0525498370937
 31
0.0
 11
569.824989076885
 21
136.9364835158076
 31
0.0
 11
569.9541819569922
 21
136.8292362310926
 31
0.0
 11
570.0920497665558
 21
136.7333885269069
 31
0.0
 11
570.2397370181244
 21
136.6481483077128
 31
0.0
 11
570.3939661157765
 21
136.5754086702329
 31
0.0
 11
570.5555758069938
 21
136.5147579182253
 31
0.0
 11
570.7215645490531
 21
136.4673440837881
 31
0.0
 11
570.9786306361519
 21
136.4210354104426
 31
0.0
 11
571.239202639258
 21
136.405580705846
 31
0.0
  0
SPLINE
  5
6F2
330
1F
100
AcDbEntity
  8
Sichtbare_Kanten_TC_020513_DIN_
  6
Continuous
 62
     7
100
AcDbSpline
210
0.0
220
0.0
230
1.0
 70
     8
 71
     3
 72
    19
 73
    15
 74
    13
 42
0.000000001
 43
0.0000000001
 44
0.00000001
 40
0.0
 40
0.0
 40
0.0
 40
0.0
 40
0.3221862205370722
 40
0.6443862618344725
 40
0.8094705328398939
 40
0.9745562229284215
 40
1.142463280812416
 40
1.310374909567543
 40
1.48089593177399
 40
1.651417687594236
 40
1.824033462668851
 40
1.996661195040917
 40
2.257865073019055
 40
2.518894987888508
 40
2.518894987888508
 40
2.518894987888508
 40
2.518894987888508
 10
569.3073509866799
 20
138.340722414337
 30
0.0
 10
569.3435646495576
 20
138.2392880936985
 30
0.0
 10
569.4159935422806
 20
138.0364151066631
 30
0.0
 10
569.5653851887142
 20
137.8087246631546
 30
0.0
 10
569.7057388655508
 20
137.6425484245955
 30
0.0
 10
569.8240860366061
 20
137.5257315897815
 30
0.0
 10
569.9527348063989
 20
137.418997547132
 30
0.0
 10
570.0915148187265
 20
137.3225845602018
 30
0.0
 10
570.238648971686
 20
137.2377253659477
 30
0.0
 10
570.3936993854801
 20
137.1646635635227
 30
0.0
 10
570.5548563235322
 20
137.1041616625524
 30
0.0
 10
570.7494298988211
 20
137.0489058719443
 30
0.0
 10
570.9779701732093
 20
137.0061623798825
 30
0.0
 10
571.1521444902214
 20
137.0002176431727
 30
0.0
 10
571.239202639257
 20
136.997246272283
 30
0.0
 11
569.3073509866799
 21
138.340722414337
 31
0.0
 11
569.4276153978761
 21
138.0418237136226
 31
0.0
 11
569.6008985506801
 21
137.770188264905
 31
0.0
 11
569.7075927634322
 21
137.6442154035308
 31
0.0
 11
569.8249890768849
 21
137.5281490822446
 31
0.0
 11
569.9541819569922
 21
137.4209017975296
 31
0.0
 11
570.0920497665559
 21
137.325054093344
 31
0.0
 11
570.2397370181244
 21
137.2398138741498
 31
0.0
 11
570.3939661157764
 21
137.1670742366699
 31
0.0
 11
570.5555758069936
 21
137.1064234846622
 31
0.0
 11
570.7215645490527
 21
137.0590096502251
 31
0.0
 11
570.9786306361511
 21
137.0127009768796
 31
0.0
 11
571.239202639257
 21
136.997246272283
 31
0.0
  0
LWPOLYLINE
  5
6F3
330
1F
100
AcDbEntity
  8
Sichtbare_Kanten_TC_020513_DIN_
  6
Continuous
 62
     7
100
AcDbPolyline
 90
       25
 70
     0
 43
0.0
 10
485.612153836015
 20
143.25742790389
 10
485.591044255021
 20
143.303792270898
 10
485.570792980912
 20
143.350513371705
 10
485.5513976295019
 20
143.397579583405
 10
485.532867737535
 20
143.444978687047
 10
485.515203305009
 20
143.492699059724
 10
485.498411484483
 20
143.540728780507
 10
485.4824946601419
 20
143.589055332421
 10
485.467457600358
 20
143.637667390584
 10
485.453305073503
 20
143.686552736043
 10
485.440039463761
 20
143.735699149846
 10
485.4276655395059
 20
143.785094711064
 10
485.416185684922
 20
143.834728094815
 10
485.405614205125
 20
143.884562346219
 10
485.3959534843
 20
143.934559318303
 10
485.387205906632
 20
143.984707686185
 10
485.379371472123
 20
144.034994336842
 10
485.372457333329
 20
144.085406157254
 10
485.366458721879
 20
144.135931822537
 10
485.361378021959
 20
144.18655821967
 10
485.357220001939
 20
144.237272235631
 10
485.3539822776349
 20
144.28806194949
 10
485.351669617417
 20
144.338914844273
 10
485.3502796371009
 20
144.389817806958
 10
485.349814720872
 20
144.440758916615
  0
LWPOLYLINE
  5
6F4
330
1F
100
AcDbEntity
  8
Sichtbare_Kanten_TC_020513_DIN_
  6
Continuous
 62
     7
100
AcDbPolyline
 90
       25
 70
     0
 43
0.0
 10
486.749815769914
 20
144.440758916615
 10
486.750047035936
 20
144.41528865981
 10
486.7507432181869
 20
144.389836880444
 10
486.751899548295
 20
144.364410731076
 10
486.753518410447
 20
144.339015576123
 10
486.755597420457
 20
144.313658568143
 10
486.758136578324
 20
144.2883456676
 10
486.7611358840489
 20
144.263082834958
 10
486.764592953446
 20
144.237876626729
 10
486.768510170701
 20
144.212733599423
 10
486.772885151628
 20
144.187659117459
 10
486.77771551204
 20
144.16266092944
 10
486.783001251939
 20
144.137743803738
 10
486.788739987138
 20
144.11292681384
 10
486.794926949266
 20
144.088229033231
 10
486.801559754136
 20
144.063655826329
 10
486.808636017564
 20
144.0392131536
 10
486.816155739549
 20
144.014906975507
 10
486.824114151719
 20
143.990743848561
 10
486.832508869889
 20
143.966729137181
 10
486.841342278245
 20
143.942868801831
 10
486.850607224229
 20
143.919169399022
 10
486.860303707841
 20
143.895636293172
 10
486.870429344895
 20
143.872275444745
 10
486.8809841353919
 20
143.849093410252
  0
LWPOLYLINE
  5
6F5
330
1F
100
AcDbEntity
  8
Sichtbare_Kanten_TC_020513_DIN_
  6
Continuous
 62
     7
100
AcDbPolyline
 90
       25
 70
     0
 43
0.0
 10
485.840496845964
 20
156.000936123608
 10
485.906209774735
 20
156.092753502606
 10
485.975642033342
 20
156.181932780026
 10
486.048719712022
 20
156.268354746579
 10
486.125328369859
 20
156.351857277631
 10
486.20514614177
 20
156.432086321591
 10
486.288025208238
 20
156.508921477078
 10
486.3738535125279
 20
156.582279297589
 10
486.4625189979109
 20
156.652081104993
 10
486.5539119918379
 20
156.718243452786
 10
486.647918053392
 20
156.780685278653
 10
486.744427510026
 20
156.839324328183
 10
486.843325920823
 20
156.894079539059
 10
486.944503613237
 20
156.944868656872
 10
487.047769852403
 20
156.991577240704
 10
487.152771778825
 20
157.034040781735
 10
487.259361572984
 20
157.072209212064
 10
487.367410488847
 20
157.106037232159
 10
487.476782627824
 20
157.135481926679
 10
487.587332554582
 20
157.160494419812
 10
487.6987503249679
 20
157.181001993893
 10
487.810845204118
 20
157.196979614972
 10
487.9234812934429
 20
157.208410593747
 10
488.036517925981
 20
157.215280625104
 10
488.149816818955
 20
157.217573019742
  0
LWPOLYLINE
  5
6F6
330
1F
100
AcDbEntity
  8
Sichtbare_Kanten_TC_020513_DIN_
  6
Continuous
 62
     7
100
AcDbPolyline
 90
       25
 70
     0
 43
0.0
 10
488.149816818955
 20
155.817573162793
 10
488.0781696517499
 20
155.815738531827
 10
488.006856270555
 20
155.810254904507
 10
487.936010189775
 20
155.801149698971
 10
487.8657673079999
 20
155.788453909634
 10
487.7962682921919
 20
155.772196146726
 10
487.7276466567549
 20
155.752403828381
 10
487.66004306865
 20
155.729107949017
 10
487.5935934264689
 20
155.702337118863
 10
487.52855283809
 20
155.6721783607
 10
487.465269394639
 20
155.638799759625
 10
487.40385992122
 20
155.602288338422
 10
487.344441242936
 20
155.562723967313
 10
487.28712541652
 20
155.520190092801
 10
487.23202688289
 20
155.474768969296
 10
487.179257698777
 20
155.426541659116
 10
487.128932305101
 20
155.375591608762
 10
487.0812175948649
 20
155.322061869382
 10
487.036382981065
 20
155.26625880885
 10
486.994514294389
 20
155.20831951785
 10
486.955687828782
 20
155.148364397763
 10
486.919972725633
 20
155.086515042065
 10
486.887440510514
 20
155.022889467954
 10
486.8581650931869
 20
154.957610460996
 10
486.832220383409
 20
154.890797230481
  0
LWPOLYLINE
  5
6F7
330
1F
100
AcDbEntity
  8
Sichtbare_Kanten_TC_020513_DIN_
  6
Continuous
 62
     7
100
AcDbPolyline
 90
       25
 70
     0
 43
0.0
 10
486.832220383409
 20
154.890797230481
 10
486.82732564998
 20
154.87690577197
 10
486.8220279891519
 20
154.861258360623
 10
486.816410847428
 20
154.843950363873
 10
486.810564823869
 20
154.825081917523
 10
486.804573364976
 20
154.80475077319
 10
486.798529453996
 20
154.783054682492
 10
486.792516537431
 20
154.760093781232
 10
486.786622830156
 20
154.735964628934
 10
486.780936547044
 20
154.710764977216
 10
486.77554590297
 20
154.684596153973
 10
486.7705391128089
 20
154.657553526639
 10
486.7660568435219
 20
154.630307051419
 10
486.762265988115
 20
154.6044195621
 10
486.759116478685
 20
154.579982849835
 10
486.7565487105879
 20
154.557006451367
 10
486.754500694993
 20
154.535499903439
 10
486.752917595628
 20
154.515475126981
 10
486.751739807847
 20
154.496939274548
 10
486.7509029586349
 20
154.479903074979
 10
486.750354595903
 20
154.464377257108
 10
486.750030346635
 20
154.450371357678
 10
486.749870606187
 20
154.437896105527
 10
486.749820538285
 20
154.426959845303
 10
486.749815769914
 20
154.417573305844
  0
LWPOLYLINE
  5
6F8
330
1F
100
AcDbEntity
  8
Sichtbare_Kanten_TC_020513_DIN_
  6
Continuous
 62
     7
100
AcDbPolyline
 90
       25
 70
     0
 43
0.0
 10
484.433061905625
 20
156.221931072949
 10
484.413115807298
 20
156.230859848737
 10
484.393143482927
 20
156.239787432431
 10
484.373152085069
 20
156.248715016126
 10
484.353136845353
 20
156.25764259982
 10
484.333102532151
 20
156.266568991422
 10
484.313049145463
 20
156.275496575116
 10
484.292974301103
 20
156.284422966717
 10
484.272882767442
 20
156.293350550412
 10
484.25277454448
 20
156.302276942014
 10
484.232649632218
 20
156.311204525708
 10
484.212508030656
 20
156.320133301495
 10
484.192349739793
 20
156.329062077283
 10
484.1721819121869
 20
156.337989660977
 10
484.152002163652
 20
156.346918436765
 10
484.131812878373
 20
156.355846020459
 10
484.111616440537
 20
156.364773604153
 10
484.091410465959
 20
156.373699995755
 10
484.071197338822
 20
156.38262757945
 10
484.050977059129
 20
156.391553971051
 10
484.030754395249
 20
156.400480362653
 10
484.010524578813
 20
156.409407946347
 10
483.990289994004
 20
156.418335530041
 10
483.970055409196
 20
156.427264305829
 10
483.949816056016
 20
156.436191889523
  0
LWPOLYLINE
  5
6F9
330
1F
100
AcDbEntity
  8
Sichtbare_Kanten_TC_020513_DIN_
  6
Continuous
 62
     7
100
AcDbPolyline
 90
       25
 70
     0
 43
0.0
 10
486.749815769914
 20
155.325145813702
 10
486.74977285457
 20
155.338420960187
 10
486.7496441085369
 20
155.351696106671
 10
486.749431916001
 20
155.364970061063
 10
486.749131508592
 20
155.378244015454
 10
486.7487476546789
 20
155.391516777753
 10
486.748277970079
 20
155.404790732144
 10
486.747722454789
 20
155.418064686536
 10
486.7470811088119
 20
155.431337448834
 10
486.746353932145
 20
155.444611403226
 10
486.7455433089759
 20
155.457885357617
 10
486.744646855119
 20
155.471160504101
 10
486.743664570573
 20
155.484434458493
 10
486.742596455339
 20
155.497709604977
 10
486.741442509416
 20
155.510984751462
 10
486.74020511699
 20
155.524258705853
 10
486.7388818938759
 20
155.537532660245
 10
486.7374752242599
 20
155.550805422543
 10
486.735980339769
 20
155.564079376935
 10
486.734402008775
 20
155.577353331326
 10
486.7327402312779
 20
155.590626093625
 10
486.730990238908
 20
155.603900048016
 10
486.729156800035
 20
155.617174002408
 10
486.727239914659
 20
155.630449148892
 10
486.725237198594
 20
155.643724295377
  0
LWPOLYLINE
  5
6FA
330
1F
100
AcDbEntity
  8
Sichtbare_Kanten_TC_020513_DIN_
  6
Continuous
 62
     7
100
AcDbPolyline
 90
       25
 70
     0
 43
0.0
 10
486.725237198594
 20
155.643724295377
 10
486.723487206224
 20
155.655086132764
 10
486.721312828782
 20
155.668698641537
 10
486.718597241166
 20
155.684287640332
 10
486.715228386644
 20
155.701584908246
 10
486.711096592668
 20
155.720318648099
 10
486.7060826499489
 20
155.740218254804
 10
486.700081654313
 20
155.761014315366
 10
486.692972012284
 20
155.782433840512
 10
486.6846488196879
 20
155.804207417248
 10
486.674992867234
 20
155.826064440488
 10
486.6638968665629
 20
155.847734305142
 10
486.65124399257
 20
155.868946406125
 10
486.6369198043379
 20
155.889428946256
 10
486.62084800792
 20
155.908870789288
 10
486.6033623893289
 20
155.926557871579
 10
486.5845916945959
 20
155.942322108029
 10
486.564550228837
 20
155.956176611661
 10
486.543254681352
 20
155.968138071774
 10
486.520719357255
 20
155.978220793485
 10
486.4969585616619
 20
155.98643669772
 10
486.471988983873
 20
155.992802473782
 10
486.445822544816
 20
155.997331234692
 10
486.4184759337929
 20
156.000037285565
 10
486.389963455918
 20
156.000936123608
  0
LWPOLYLINE
  5
6FB
330
1F
100
AcDbEntity
  8
Sichtbare_Kanten_TC_020513_DIN_
  6
Continuous
 62
     7
100
AcDbPolyline
 90
       25
 70
     0
 43
0.0
 10
485.4423139770059
 20
156.000936123608
 10
485.394556351426
 20
156.001474949597
 10
485.346267052415
 20
156.003095003842
 10
485.297477074388
 20
156.005801054715
 10
485.2482221801309
 20
156.009597870587
 10
485.198538132432
 20
156.014487835644
 10
485.1484606940779
 20
156.020476910351
 10
485.098018475297
 20
156.027568670987
 10
485.047252007249
 20
156.035767885922
 10
484.996192284349
 20
156.045078131436
 10
484.9449060637979
 20
156.055499407529
 10
484.894654579881
 20
156.066781374692
 10
484.8461316306619
 20
156.078695151089
 10
484.799432583574
 20
156.091104838132
 10
484.754650421861
 20
156.103876921414
 10
484.711880512956
 20
156.11687669444
 10
484.671215840104
 20
156.129969450711
 10
484.632751770738
 20
156.143021675824
 10
484.5965860564739
 20
156.155897471188
 10
484.5628069121869
 20
156.1684633224
 10
484.531512089494
 20
156.180583330868
 10
484.502796955827
 20
156.192125174283
 10
484.4767544944319
 20
156.202952954053
 10
484.453477688554
 20
156.212933155774
 10
484.433061905625
 20
156.221931072949
  0
LWPOLYLINE
  5
6FC
330
1F
100
AcDbEntity
  8
Sichtbare_Kanten_TC_020513_DIN_
  6
Continuous
 62
     7
100
AcDbPolyline
 90
       25
 70
     0
 43
0.0
 10
382.2853706557781
 20
143.849093410252
 10
382.2959278304606
 20
143.872275444745
 10
382.3060510833293
 20
143.895636293172
 10
382.3157499511272
 20
143.919169399022
 10
382.3250148971111
 20
143.942868801831
 10
382.333845921281
 20
143.966729137181
 10
382.342243023637
 20
143.990743848561
 10
382.3502014358074
 20
144.014906975507
 10
382.3577211577922
 20
144.0392131536
 10
382.36479742122
 20
144.063655826329
 10
382.3714302260906
 20
144.088229033231
 10
382.3776148040325
 20
144.11292681384
 10
382.3833559234172
 20
144.137743803738
 10
382.3886440475017
 20
144.16266092944
 10
382.3934744079143
 20
144.187659117459
 10
382.397847004655
 20
144.212733599423
 10
382.4017618377239
 20
144.237876626729
 10
382.4052189071208
 20
144.263082834958
 10
382.4082182128459
 20
144.2883456676
 10
382.4107597548992
 20
144.313658568143
 10
382.4128387649089
 20
144.339015576123
 10
382.4144600112468
 20
144.364410731076
 10
382.4156139571697
 20
144.389836880444
 10
382.4163101394206
 20
144.41528865981
 10
382.4165390212565
 20
144.440758916615
  0
LWPOLYLINE
  5
6FD
330
1F
100
AcDbEntity
  8
Sichtbare_Kanten_TC_020513_DIN_
  6
Continuous
 62
     7
100
AcDbPolyline
 90
       25
 70
     0
 43
0.0
 10
383.8165424544841
 20
144.440758916615
 10
383.8160799224407
 20
144.389817806958
 10
383.8146875579387
 20
144.338914844273
 10
383.8123748977214
 20
144.28806194949
 10
383.8091371734172
 20
144.237272235631
 10
383.8049791533977
 20
144.18655821967
 10
383.7999008376628
 20
144.135931822537
 10
383.7939022262126
 20
144.085406157254
 10
383.7869833190471
 20
144.034994336842
 10
383.7791536529094
 20
143.984707686185
 10
383.7704036910563
 20
143.934559318303
 10
383.7607429702312
 20
143.884562346219
 10
383.7501714904338
 20
143.834728094815
 10
383.7386940200358
 20
143.785094711064
 10
383.7263200957805
 20
143.735699149846
 10
383.7130544860393
 20
143.686552736043
 10
383.6988971908122
 20
143.637667390584
 10
383.6838625152141
 20
143.589055332421
 10
383.6679456908732
 20
143.540728780507
 10
383.6511514861614
 20
143.492699059724
 10
383.6334894378215
 20
143.444978687047
 10
383.6149595458537
 20
143.397579583405
 10
383.5955665786296
 20
143.350513371705
 10
383.5753105361492
 20
143.303792270898
 10
383.5542009551555
 20
143.25742790389
  0
LWPOLYLINE
  5
6FE
330
1F
100
AcDbEntity
  8
Sichtbare_Kanten_TC_020513_DIN_
  6
Continuous
 62
     7
100
AcDbPolyline
 90
       25
 70
     0
 43
0.0
 10
382.3341367919475
 20
154.890797230481
 10
382.3081920821697
 20
154.957604500531
 10
382.2789285857706
 20
155.022868010281
 10
382.2464082915813
 20
155.08646735835
 10
382.2107170302897
 20
155.148283335446
 10
382.17192632747
 20
155.208196732282
 10
382.130102940324
 20
155.266088339566
 10
382.0853279311687
 20
155.32183894801
 10
382.0376728255779
 20
155.375328156232
 10
381.9873045165569
 20
155.426346155881
 10
381.9344995696575
 20
155.474623533963
 10
381.8793771941691
 20
155.520075651883
 10
381.8220565993815
 20
155.562623831509
 10
381.7626522262126
 20
155.602188202618
 10
381.7012832839519
 20
155.638691279172
 10
381.6380594451456
 20
155.672051998853
 10
381.5730951507121
 20
155.702192875622
 10
381.5065859038859
 20
155.729005429028
 10
381.4389131743938
 20
155.752339455365
 10
381.3702343184978
 20
155.772157999753
 10
381.3006828506022
 20
155.788434836148
 10
381.2304018218547
 20
155.801142546414
 10
381.1595247466594
 20
155.810252520322
 10
381.0881899077922
 20
155.815738531827
 10
381.0165403564006
 20
155.817573162793
  0
LWPOLYLINE
  5
6FF
330
1F
100
AcDbEntity
  8
Sichtbare_Kanten_TC_020513_DIN_
  6
Continuous
 62
     7
100
AcDbPolyline
 90
       25
 70
     0
 43
0.0
 10
381.0165403564006
 20
157.217573019742
 10
381.1298702437907
 20
157.215279433011
 10
381.242832966569
 20
157.208414170026
 10
381.3552902419597
 20
157.197005841016
 10
381.4671133239299
 20
157.181081864117
 10
381.5781639297038
 20
157.160668465375
 10
381.6883085448772
 20
157.135794255017
 10
381.7974041183024
 20
157.106486651181
 10
381.9053171355754
 20
157.07277187991
 10
382.0119140822917
 20
157.034677359341
 10
382.1170519073039
 20
156.99223408389
 10
382.2203252990275
 20
156.945598217725
 10
382.3214719970256
 20
156.894900891064
 10
382.4203870971232
 20
156.84022078204
 10
382.5169418532878
 20
156.781635376691
 10
382.6110313613445
 20
156.719222161054
 10
382.7025411803752
 20
156.65305981326
 10
382.7913521010906
 20
156.583225819348
 10
382.8773449142009
 20
156.509796473264
 10
382.9604147155314
 20
156.432852837323
 10
383.040427990678
 20
156.352485510587
 10
383.1170938689739
 20
156.268971058606
 10
383.1902836043865
 20
156.182468029736
 10
383.2598970611125
 20
156.093087288617
 10
383.3258627135784
 20
156.000936123608
  0
LWPOLYLINE
  5
700
330
1F
100
AcDbEntity
  8
Sichtbare_Kanten_TC_020513_DIN_
  6
Continuous
 62
     7
100
AcDbPolyline
 90
       25
 70
     0
 43
0.0
 10
382.4165390212565
 20
154.417573305844
 10
382.4165390212565
 20
154.426959845303
 10
382.4164865691691
 20
154.437896105527
 10
382.416329212907
 20
154.450371357678
 10
382.4160049636394
 20
154.464377257108
 10
382.4154518325358
 20
154.479903074979
 10
382.414617367509
 20
154.496939274548
 10
382.4134395797282
 20
154.515475126981
 10
382.411856480363
 20
154.535499903439
 10
382.4098108489543
 20
154.557006451367
 10
382.4072406966716
 20
154.579982849835
 10
382.4040888030559
 20
154.6044195621
 10
382.4002979476481
 20
154.630307051419
 10
382.3958156783611
 20
154.657553526639
 10
382.3908088881998
 20
154.684596153973
 10
382.3854206283122
 20
154.710764977216
 10
382.3797319610148
 20
154.735964628934
 10
382.3738382537395
 20
154.760093781232
 10
382.3678253371745
 20
154.783054682492
 10
382.3617838103801
 20
154.80475077319
 10
382.355794735673
 20
154.825081917523
 10
382.3499439437419
 20
154.843950363873
 10
382.3443315703898
 20
154.861258360623
 10
382.3390291411907
 20
154.87690577197
 10
382.3341367919475
 20
154.890797230481
  0
LWPOLYLINE
  5
701
330
1F
100
AcDbEntity
  8
Sichtbare_Kanten_TC_020513_DIN_
  6
Continuous
 62
     7
100
AcDbPolyline
 90
       25
 70
     0
 43
0.0
 10
382.7763937194377
 20
156.000936123608
 10
382.750778027299
 20
156.000212523221
 10
382.7260969359905
 20
155.998034569501
 10
382.7023552138835
 20
155.994391533612
 10
382.6795623977214
 20
155.989275070905
 10
382.657742329362
 20
155.982673260449
 10
382.6368950088054
 20
155.974578949689
 10
382.6170395095378
 20
155.964981409787
 10
382.598190136674
 20
155.953869911908
 10
382.5803564269573
 20
155.941236111401
 10
382.5635479171306
 20
155.927070471524
 10
382.5477836806804
 20
155.911359879254
 10
382.5330446441203
 20
155.894081684827
 10
382.5193308074504
 20
155.875209662198
 10
382.5066183288127
 20
155.854718777417
 10
382.4949024398356
 20
155.832587572812
 10
382.4841688354045
 20
155.808789822339
 10
382.474694081071
 20
155.78421959567
 10
382.4666498382121
 20
155.759989115476
 10
382.4599121291667
 20
155.736490580319
 10
382.4543426711589
 20
155.714117380856
 10
382.4498079497844
 20
155.693262907742
 10
382.4461839873821
 20
155.674316975354
 10
382.443332501176
 20
155.657672974347
 10
382.441119976762
 20
155.643724295377
  0
LWPOLYLINE
  5
702
330
1F
100
AcDbEntity
  8
Sichtbare_Kanten_TC_020513_DIN_
  6
Continuous
 62
     7
100
AcDbPolyline
 90
       25
 70
     0
 43
0.0
 10
382.441119976762
 20
155.643724295377
 10
382.4391172606975
 20
155.630449148892
 10
382.4372003753215
 20
155.617174002408
 10
382.4353645522623
 20
155.603900048016
 10
382.4336193282634
 20
155.590626093625
 10
382.4319551665813
 20
155.577353331326
 10
382.4303768355876
 20
155.564079376935
 10
382.4288843352825
 20
155.550805422543
 10
382.4274728972941
 20
155.537532660245
 10
382.4261520583659
 20
155.524258705853
 10
382.4249122817546
 20
155.510984751462
 10
382.4237583358317
 20
155.497709604977
 10
382.4226949889689
 20
155.484434458493
 10
382.4217079360515
 20
155.471160504101
 10
382.420811482194
 20
155.457885357617
 10
382.4200008590251
 20
155.444611403226
 10
382.4192760665447
 20
155.431337448834
 10
382.4186371047527
 20
155.418064686536
 10
382.4180792052775
 20
155.404790732144
 10
382.4176071364909
 20
155.391516777753
 10
382.4172256667644
 20
155.378244015454
 10
382.4169252593547
 20
155.364970061063
 10
382.4167106826335
 20
155.351696106671
 10
382.4165819366008
 20
155.338420960187
 10
382.4165390212565
 20
155.325145813702
  0
LWPOLYLINE
  5
703
330
1F
100
AcDbEntity
  8
Sichtbare_Kanten_TC_020513_DIN_
  6
Continuous
 62
     7
100
AcDbPolyline
 90
       25
 70
     0
 43
0.0
 10
385.21654111934
 20
156.436191889523
 10
385.1963041503459
 20
156.427264305829
 10
385.1760671813518
 20
156.418335530041
 10
385.1558302123576
 20
156.409407946347
 10
385.1356027801066
 20
156.400480362653
 10
385.1153801162272
 20
156.391553971051
 10
385.0951574523479
 20
156.38262757945
 10
385.0749490935831
 20
156.373699995755
 10
385.0547407348186
 20
156.364773604153
 10
385.0345419127971
 20
156.355846020459
 10
385.0143526275188
 20
156.346918436765
 10
384.9941728789836
 20
156.337989660977
 10
384.9740074355632
 20
156.329062077283
 10
384.9538515288859
 20
156.320133301495
 10
384.9337099273234
 20
156.311204525708
 10
384.9135826308757
 20
156.302276942014
 10
384.8934744079143
 20
156.293350550412
 10
384.8733804900676
 20
156.284422966717
 10
384.8533104140788
 20
156.275496575116
 10
384.8332546432048
 20
156.266568991422
 10
384.8132179458171
 20
156.25764259982
 10
384.7932050902872
 20
156.248715016126
 10
384.7732113082438
 20
156.239787432431
 10
384.7532413680583
 20
156.230859848737
 10
384.7332952697307
 20
156.221931072949
  0
LWPOLYLINE
  5
704
330
1F
100
AcDbEntity
  8
Sichtbare_Kanten_TC_020513_DIN_
  6
Continuous
 62
     7
100
AcDbPolyline
 90
       25
 70
     0
 43
0.0
 10
384.7332952697307
 20
156.221931072949
 10
384.7128055770427
 20
156.212900969266
 10
384.6894500930339
 20
156.202887388944
 10
384.6633194167644
 20
156.192023846387
 10
384.6345089156657
 20
156.180448624371
 10
384.6031187255412
 20
156.168292853116
 10
384.5692394454509
 20
156.155696007489
 10
384.5329616744548
 20
156.142789217709
 10
384.4943903167278
 20
156.129710766553
 10
384.4536112029581
 20
156.116595360516
 10
384.4107244689495
 20
156.103576514005
 10
384.3658207137615
 20
156.0907913177
 10
384.3190000731975
 20
156.078373286008
 10
384.2703531463176
 20
156.06645950961
 10
384.2199753005534
 20
156.055184695004
 10
384.1688202102214
 20
156.044818255185
 10
384.1179178435831
 20
156.035561653851
 10
384.0673063476115
 20
156.027411314725
 10
384.0170238692789
 20
156.020360085248
 10
383.9670990188152
 20
156.014406773328
 10
383.917565174821
 20
156.0095454185
 10
383.8684557158977
 20
156.005772444485
 10
383.8198135573894
 20
156.003083082913
 10
383.7716625411539
 20
156.001472565411
 10
383.7240408141643
 20
156.000936123608
  0
LWPOLYLINE
  5
705
330
1F
100
AcDbEntity
  8
Sichtbare_Kanten_TC_020513_DIN_
  6
Continuous
 62
     7
100
AcDbPolyline
 90
       25
 70
     0
 43
0.0
 10
599.0543704538389
 20
143.849093410252
 10
599.0641980676689
 20
143.872275444745
 10
599.074022105221
 20
143.895636293172
 10
599.083843758588
 20
143.919169399022
 10
599.093661835675
 20
143.942868801831
 10
599.103478720669
 20
143.966729137181
 10
599.113295605664
 20
143.990743848561
 10
599.1231112985649
 20
144.014906975507
 10
599.1329281835599
 20
144.0392131536
 10
599.142746260647
 20
144.063655826329
 10
599.1525679140129
 20
144.088229033231
 10
599.162391951565
 20
144.11292681384
 10
599.172220757489
 20
144.137743803738
 10
599.182048371319
 20
144.16266092944
 10
599.191872408871
 20
144.187659117459
 10
599.201694062237
 20
144.212733599423
 10
599.2115121393249
 20
144.237876626729
 10
599.221329024319
 20
144.263082834958
 10
599.2311459093139
 20
144.2883456676
 10
599.240961602215
 20
144.313658568143
 10
599.25077848721
 20
144.339015576123
 10
599.260596564297
 20
144.364410731076
 10
599.270418217663
 20
144.389836880444
 10
599.280242255215
 20
144.41528865981
 10
599.290069869046
 20
144.440758916615
  0
LWPOLYLINE
  5
706
330
1F
100
AcDbEntity
  8
Sichtbare_Kanten_TC_020513_DIN_
  6
Continuous
 62
     7
100
AcDbPolyline
 90
       25
 70
     0
 43
0.0
 10
599.290069869046
 20
144.440758916615
 10
599.280242255216
 20
144.389817806958
 10
599.270418217664
 20
144.338914844273
 10
599.2605965642979
 20
144.28806194949
 10
599.25077848721
 20
144.237272235631
 10
599.240961602216
 20
144.18655821967
 10
599.2311459093139
 20
144.135931822537
 10
599.22132902432
 20
144.085406157254
 10
599.2115121393249
 20
144.034994336842
 10
599.201694062238
 20
143.984707686185
 10
599.191872408872
 20
143.934559318303
 10
599.18204837132
 20
143.884562346219
 10
599.172220757489
 20
143.834728094815
 10
599.162391951566
 20
143.785094711064
 10
599.152567914014
 20
143.735699149846
 10
599.142746260648
 20
143.686552736043
 10
599.1329281835599
 20
143.637667390584
 10
599.123111298566
 20
143.589055332421
 10
599.113295605664
 20
143.540728780507
 10
599.10347872067
 20
143.492699059724
 10
599.093661835675
 20
143.444978687047
 10
599.083843758588
 20
143.397579583405
 10
599.074022105222
 20
143.350513371705
 10
599.06419806767
 20
143.303792270898
 10
599.0543704538389
 20
143.25742790389
  0
LWPOLYLINE
  5
707
330
1F
100
AcDbEntity
  8
Sichtbare_Kanten_TC_020513_DIN_
  6
Continuous
 62
     7
100
AcDbPolyline
 90
       25
 70
     0
 43
0.0
 10
605.739784768109
 20
156.000936123608
 10
605.693216851239
 20
156.000212523221
 10
605.646212628369
 20
155.998034569501
 10
605.59883408833
 20
155.994391533612
 10
605.5511432199519
 20
155.989275070905
 10
605.503202012067
 20
155.982673260449
 10
605.4550748376889
 20
155.974578949689
 10
605.406818917279
 20
155.964981409787
 10
605.358498623852
 20
155.953869911908
 10
605.31017594624
 20
155.941236111401
 10
605.261912873273
 20
155.927070471524
 10
605.213773777966
 20
155.911359879254
 10
605.165851643567
 20
155.894081684827
 10
605.118246605877
 20
155.875209662198
 10
605.0710492639589
 20
155.854718777417
 10
605.024352601056
 20
155.832587572812
 10
604.9782543687859
 20
155.808789822339
 10
604.934459259991
 20
155.78421959567
 10
604.894526532177
 20
155.759989115476
 10
604.858463337903
 20
155.736490580319
 10
604.826291134839
 20
155.714117380856
 10
604.798021843915
 20
155.693262907742
 10
604.773667386059
 20
155.674316975354
 10
604.753249218945
 20
155.657672974347
 10
604.7367768793149
 20
155.643724295377
  0
LWPOLYLINE
  5
708
330
1F
100
AcDbEntity
  8
Sichtbare_Kanten_TC_020513_DIN_
  6
Continuous
 62
     7
100
AcDbPolyline
 90
       25
 70
     0
 43
0.0
 10
604.551682999616
 20
155.643724295377
 10
604.558911850934
 20
155.6560028522
 10
604.567533066754
 20
155.670149418591
 10
604.577549031263
 20
155.685939881085
 10
604.588959744458
 20
155.703152510403
 10
604.601765206342
 20
155.721562000989
 10
604.615970185285
 20
155.740944239377
 10
604.631572297101
 20
155.761077496289
 10
604.648573925977
 20
155.781736466168
 10
604.666977456098
 20
155.80269703555
 10
604.686782887464
 20
155.823737475156
 10
604.707990220075
 20
155.844633671521
 10
604.730601838117
 20
155.865160319089
 10
604.754596283918
 20
155.885077807187
 10
604.779480031018
 20
155.903849694012
 10
604.8050337343259
 20
155.921245905637
 10
604.831219246869
 20
155.937180611371
 10
604.8579912691159
 20
155.951564404248
 10
604.885306885724
 20
155.964310261487
 10
604.9131017236759
 20
155.975321623563
 10
604.941087296491
 20
155.984438750028
 10
604.9691491632509
 20
155.991598459958
 10
604.9972253351259
 20
155.996761414288
 10
605.0252585916569
 20
155.99988708186
 10
605.053186944013
 20
156.000936123608
  0
LWPOLYLINE
  5
709
330
1F
100
AcDbEntity
  8
Sichtbare_Kanten_TC_020513_DIN_
  6
Continuous
 62
     7
100
AcDbPolyline
 90
       25
 70
     0
 43
0.0
 10
604.7367768793149
 20
155.643724295377
 10
604.72143464375
 20
155.630449148892
 10
604.7060852556269
 20
155.617174002408
 10
604.690723946576
 20
155.603900048016
 10
604.675353100781
 20
155.590626093625
 10
604.6599727182429
 20
155.577353331326
 10
604.6445851831479
 20
155.564079376935
 10
604.62918811131
 20
155.550805422543
 10
604.613783886914
 20
155.537532660245
 10
604.598370125775
 20
155.524258705853
 10
604.5829515962639
 20
155.510984751462
 10
604.5675235300109
 20
155.497709604977
 10
604.5520883111999
 20
155.484434458493
 10
604.536650708203
 20
155.471160504101
 10
604.521205952649
 20
155.457885357617
 10
604.505756428723
 20
155.444611403226
 10
604.490304520611
 20
155.431337448834
 10
604.4748478441279
 20
155.418064686536
 10
604.459388783459
 20
155.404790732144
 10
604.443927338604
 20
155.391516777753
 10
604.4284635095639
 20
155.378244015454
 10
604.412997296338
 20
155.364970061063
 10
604.397528698926
 20
155.351696106671
 10
604.3820577173279
 20
155.338420960187
 10
604.3665867357299
 20
155.325145813702
  0
LWPOLYLINE
  5
70A
330
1F
100
AcDbEntity
  8
Sichtbare_Kanten_TC_020513_DIN_
  6
Continuous
 62
     7
100
AcDbPolyline
 90
       25
 70
     0
 43
0.0
 10
604.3665867357299
 20
155.325145813702
 10
604.374323418622
 20
155.338420960187
 10
604.3820577173279
 20
155.351696106671
 10
604.389792016034
 20
155.364970061063
 10
604.3975263147399
 20
155.378244015454
 10
604.405258229261
 20
155.391516777753
 10
604.4129877595949
 20
155.404790732144
 10
604.4207172899289
 20
155.418064686536
 10
604.428446820264
 20
155.431337448834
 10
604.436171582227
 20
155.444611403226
 10
604.44389634419
 20
155.457885357617
 10
604.451618721967
 20
155.471160504101
 10
604.459338715558
 20
155.484434458493
 10
604.467056324964
 20
155.497709604977
 10
604.4747691659979
 20
155.510984751462
 10
604.482479622846
 20
155.524258705853
 10
604.490185311322
 20
155.537532660245
 10
604.497888615613
 20
155.550805422543
 10
604.5055871515319
 20
155.564079376935
 10
604.51328091908
 20
155.577353331326
 10
604.520969918256
 20
155.590626093625
 10
604.528656533246
 20
155.603900048016
 10
604.5363359956789
 20
155.617174002408
 10
604.5440106897399
 20
155.630449148892
 10
604.551682999616
 20
155.643724295377
  0
LWPOLYLINE
  5
70B
330
1F
100
AcDbEntity
  8
Sichtbare_Kanten_TC_020513_DIN_
  6
Continuous
 62
     7
100
AcDbPolyline
 90
       25
 70
     0
 43
0.0
 10
607.166588833814
 20
156.436191889523
 10
607.166514924055
 20
156.427264305829
 10
607.166295578962
 20
156.418335530041
 10
607.16592841435
 20
156.409407946347
 10
607.1654181985909
 20
156.400480362653
 10
607.1647601633119
 20
156.391553971051
 10
607.163954308515
 20
156.38262757945
 10
607.16300540257
 20
156.373699995755
 10
607.1619086771059
 20
156.364773604153
 10
607.160666516309
 20
156.355846020459
 10
607.159278920179
 20
156.346918436765
 10
607.157743504529
 20
156.337989660977
 10
607.156062653547
 20
156.329062077283
 10
607.154238751417
 20
156.320133301495
 10
607.152267029767
 20
156.311204525708
 10
607.150149872785
 20
156.302276942014
 10
607.1478872804689
 20
156.293350550412
 10
607.14547925282
 20
156.284422966717
 10
607.142928174024
 20
156.275496575116
 10
607.140229275709
 20
156.266568991422
 10
607.137387326246
 20
156.25764259982
 10
607.1343999414499
 20
156.248715016126
 10
607.131269505506
 20
156.239787432431
 10
607.1279912500429
 20
156.230859848737
 10
607.124569943433
 20
156.221931072949
  0
LWPOLYLINE
  5
70C
330
1F
100
AcDbEntity
  8
Sichtbare_Kanten_TC_020513_DIN_
  6
Continuous
 62
     7
100
AcDbPolyline
 90
       25
 70
     0
 43
0.0
 10
605.7455783395819
 20
156.221931072949
 10
605.74729018498
 20
156.230859848737
 10
605.748928120618
 20
156.239787432431
 10
605.750494530683
 20
156.248715016126
 10
605.751987030988
 20
156.25764259982
 10
605.75340800572
 20
156.266568991422
 10
605.7547574548769
 20
156.275496575116
 10
605.756032994276
 20
156.284422966717
 10
605.7572370081
 20
156.293350550412
 10
605.758369496351
 20
156.302276942014
 10
605.7594280748419
 20
156.311204525708
 10
605.760412743574
 20
156.320133301495
 10
605.761325886732
 20
156.329062077283
 10
605.76216512013
 20
156.337989660977
 10
605.762932827955
 20
156.346918436765
 10
605.7636266260199
 20
156.355846020459
 10
605.7642488985109
 20
156.364773604153
 10
605.764797261243
 20
156.373699995755
 10
605.7652717142159
 20
156.38262757945
 10
605.7656746416139
 20
156.391553971051
 10
605.766003659254
 20
156.400480362653
 10
605.766258767133
 20
156.409407946347
 10
605.766442349439
 20
156.418335530041
 10
605.766552021986
 20
156.427264305829
 10
605.7665877847719
 20
156.436191889523
  0
LWPOLYLINE
  5
70D
330
1F
100
AcDbEntity
  8
Sichtbare_Kanten_TC_020513_DIN_
  6
Continuous
 62
     7
100
AcDbPolyline
 90
       25
 70
     0
 43
0.0
 10
607.124569943433
 20
156.221931072949
 10
607.1209316759159
 20
156.212900969266
 10
607.116621068006
 20
156.202887388944
 10
607.111561825757
 20
156.192023846387
 10
607.1056728868539
 20
156.180448624371
 10
607.0988708047919
 20
156.168292853116
 10
607.091074517255
 20
156.155696007489
 10
607.082205346112
 20
156.142789217709
 10
607.072182229047
 20
156.129710766553
 10
607.060921719556
 20
156.116595360516
 10
607.0483427553229
 20
156.103576514005
 10
607.034366658216
 20
156.0907913177
 10
607.0189123659179
 20
156.078373286008
 10
607.0018964319279
 20
156.06645950961
 10
606.983237793927
 20
156.055184695004
 10
606.96317248631
 20
156.044818255185
 10
606.942039063459
 20
156.035561653851
 10
606.91984467793
 20
156.027411314725
 10
606.896601250653
 20
156.020360085248
 10
606.872315934186
 20
156.014406773328
 10
606.847003033643
 20
156.0095454185
 10
606.820669701581
 20
156.005772444485
 10
606.7933254747439
 20
156.003083082913
 10
606.76498227406
 20
156.001472565411
 10
606.735647252088
 20
156.000936123608
  0
LWPOLYLINE
  5
70E
330
1F
100
AcDbEntity
  8
Sichtbare_Kanten_TC_020513_DIN_
  6
Continuous
 62
     7
100
AcDbPolyline
 90
       25
 70
     0
 43
0.0
 10
605.551116993909
 20
156.000936123608
 10
605.565383961683
 20
156.001445147275
 10
605.579131176954
 20
156.002966257809
 10
605.592358639722
 20
156.005488726376
 10
605.605066349988
 20
156.009000632047
 10
605.617251923566
 20
156.01349363017
 10
605.628917744642
 20
156.01895699191
 10
605.640063813215
 20
156.025377604245
 10
605.650690129285
 20
156.032748314618
 10
605.6607943086669
 20
156.041056010007
 10
605.670366814618
 20
156.050279232739
 10
605.679376652723
 20
156.060363146542
 10
605.6878381280949
 20
156.071280333279
 10
605.695763161664
 20
156.083006951092
 10
605.703166058546
 20
156.095522734403
 10
605.7100611238529
 20
156.108802649258
 10
605.716429284101
 20
156.12273106265
 10
605.722103646284
 20
156.136767956494
 10
605.7271080522589
 20
156.150680872678
 10
605.731485417371
 20
156.164298149823
 10
605.735281041151
 20
156.177448126553
 10
605.738542607313
 20
156.189959141492
 10
605.7413177995729
 20
156.201658341168
 10
605.743647149091
 20
156.212372872113
 10
605.7455783395819
 20
156.221931072949
  0
LWPOLYLINE
  5
70F
330
1F
100
AcDbEntity
  8
Sichtbare_Kanten_TC_020513_DIN_
  6
Continuous
 62
     7
100
AcDbPolyline
 90
       25
 70
     0
 43
0.0
 10
598.451061776166
 20
154.890797230481
 10
598.4234052209899
 20
154.957604500531
 10
598.39580469418
 20
155.022868010281
 10
598.368239930157
 20
155.08646735835
 10
598.3406966238069
 20
155.148283335446
 10
598.313153317456
 20
155.208196732282
 10
598.285594513897
 20
155.266088339566
 10
598.258001139645
 20
155.32183894801
 10
598.2303553133049
 20
155.375328156232
 10
598.202689221386
 20
155.426346155881
 10
598.1750803499269
 20
155.474623533963
 10
598.147510817532
 20
155.520075651883
 10
598.1199651269949
 20
155.562623831509
 10
598.092423012738
 20
155.602188202618
 10
598.064867785458
 20
155.638691279172
 10
598.0372815637629
 20
155.672051998853
 10
598.009646466259
 20
155.702192875622
 10
597.981974413876
 20
155.729005429028
 10
597.9543512373009
 20
155.752339455365
 10
597.926766207699
 20
155.772157999753
 10
597.8992026357689
 20
155.788434836148
 10
597.8716426401179
 20
155.801142546414
 10
597.844067147259
 20
155.810252520322
 10
597.816459467892
 20
155.815738531827
 10
597.7888005285299
 20
155.817573162793
  0
LWPOLYLINE
  5
710
330
1F
100
AcDbEntity
  8
Sichtbare_Kanten_TC_020513_DIN_
  6
Continuous
 62
     7
100
AcDbPolyline
 90
       25
 70
     0
 43
0.0
 10
597.7888005285299
 20
157.217573019742
 10
597.816430857662
 20
157.213910910367
 10
597.8440099268
 20
157.202962729214
 10
597.871554425244
 20
157.184780928372
 10
597.89908342648
 20
157.159422728299
 10
597.9266148119009
 20
157.126942965268
 10
597.9541652708099
 20
157.087395283459
 10
597.9817538766899
 20
157.040838095425
 10
598.009394934659
 20
156.987331005811
 10
598.037012150769
 20
156.92715177226
 10
598.0645816831629
 20
156.860535237073
 10
598.092121413235
 20
156.787637564419
 10
598.1196492223789
 20
156.708616110562
 10
598.147182991986
 20
156.623625847577
 10
598.1747406034519
 20
156.532826515912
 10
598.202341130261
 20
156.436373087643
 10
598.2299893407869
 20
156.334465834378
 10
598.2576244382899
 20
156.227593514203
 10
598.2852464227719
 20
156.116033884763
 10
598.3128755598109
 20
156.000007483243
 10
598.340526154523
 20
155.879744383572
 10
598.3681660203979
 20
155.755702349423
 10
598.395790389066
 20
155.628231856107
 10
598.423415949826
 20
155.497586819409
 10
598.451061776166
 20
155.364019963025
  0
LWPOLYLINE
  5
711
330
1F
100
AcDbEntity
  8
Sichtbare_Kanten_TC_020513_DIN_
  6
Continuous
 62
     7
100
AcDbPolyline
 90
       25
 70
     0
 43
0.0
 10
598.862489989285
 20
154.417573305844
 10
598.848583033566
 20
154.426959845303
 10
598.8328235654869
 20
154.437896105527
 10
598.8154058961909
 20
154.450371357678
 10
598.796524336819
 20
154.464377257108
 10
598.776374390607
 20
154.479903074979
 10
598.7551515607879
 20
154.496939274548
 10
598.733048966412
 20
154.515475126981
 10
598.710263302807
 20
154.535499903439
 10
598.686988881115
 20
154.557006451367
 10
598.663421204571
 20
154.579982849835
 10
598.63975577641
 20
154.6044195621
 10
598.61618571568
 20
154.630307051419
 10
598.592970898633
 20
154.657553526639
 10
598.5714273958249
 20
154.684596153973
 10
598.551928332333
 20
154.710764977216
 10
598.5343699960749
 20
154.735964628934
 10
598.518646290784
 20
154.760093781232
 10
598.504649928097
 20
154.783054682492
 10
598.492277195935
 20
154.80475077319
 10
598.4814219980279
 20
154.825081917523
 10
598.47197823811
 20
154.843950363873
 10
598.463841012005
 20
154.861258360623
 10
598.4569042234469
 20
154.87690577197
 10
598.451061776166
 20
154.890797230481
  0
LWPOLYLINE
  5
712
330
1F
100
AcDbEntity
  8
Sichtbare_Kanten_TC_020513_DIN_
  6
Continuous
 62
     7
100
AcDbPolyline
 90
       25
 70
     0
 43
0.0
 10
598.451061776166
 20
155.364019963025
 10
598.46796803761
 20
155.287348124265
 10
598.486071160321
 20
155.215103718518
 10
598.505055239682
 20
155.147307011365
 10
598.5246007947969
 20
155.083974692105
 10
598.5443943052339
 20
155.025128218411
 10
598.564116290097
 20
154.970787855862
 10
598.583450844769
 20
154.920971485852
 10
598.602097561841
 20
154.875663611173
 10
598.620619109158
 20
154.833083245038
 10
598.639350464826
 20
154.792238566159
 10
598.658183148389
 20
154.753158184766
 10
598.677007487302
 20
154.715867134808
 10
598.6957138090179
 20
154.680392834424
 10
598.7141924409909
 20
154.646760317563
 10
598.732336094861
 20
154.614995810269
 10
598.750033905988
 20
154.585127922772
 10
598.7671785860109
 20
154.55718049693
 10
598.783658078199
 20
154.531182142972
 10
598.799366286283
 20
154.507157894849
 10
598.8141911535309
 20
154.485133978604
 10
598.828025391584
 20
154.465136620282
 10
598.840759327893
 20
154.447194430112
 10
598.8522832899139
 20
154.431330057858
 10
598.862489989285
 20
154.417573305844
  0
LWPOLYLINE
  5
713
330
1F
100
AcDbEntity
  8
Sichtbare_Kanten_TC_020513_DIN_
  6
Continuous
 62
     7
100
AcDbPolyline
 90
       25
 70
     0
 43
0.0
 10
567.8706853895239
 20
154.417573305844
 10
567.8808920888949
 20
154.431330057858
 10
567.8924160509159
 20
154.447194430112
 10
567.905149987226
 20
154.465136620282
 10
567.918984225278
 20
154.485133978604
 10
567.933809092527
 20
154.507157894849
 10
567.949517300611
 20
154.531182142972
 10
567.965996792798
 20
154.55718049693
 10
567.983141472821
 20
154.585127922772
 10
568.0008392839479
 20
154.614995810269
 10
568.018982937818
 20
154.646760317563
 10
568.0374615697909
 20
154.680392834424
 10
568.0561678915069
 20
154.715867134808
 10
568.07499223042
 20
154.753158184766
 10
568.093824913983
 20
154.792238566159
 10
568.1125562696509
 20
154.833083245038
 10
568.131077816968
 20
154.875663611173
 10
568.1497245340399
 20
154.920971485852
 10
568.169059088712
 20
154.970787855862
 10
568.188781073575
 20
155.025128218411
 10
568.208574584012
 20
155.083974692105
 10
568.228120139127
 20
155.147307011365
 10
568.247104218488
 20
155.215103718518
 10
568.2652073411989
 20
155.287348124265
 10
568.282113602643
 20
155.364019963025
  0
LWPOLYLINE
  5
714
330
1F
100
AcDbEntity
  8
Sichtbare_Kanten_TC_020513_DIN_
  6
Continuous
 62
     7
100
AcDbPolyline
 90
       25
 70
     0
 43
0.0
 10
568.282113602643
 20
155.364019963025
 10
568.309743931775
 20
155.497510525464
 10
568.337323000913
 20
155.627935024976
 10
568.364867499356
 20
155.755053850888
 10
568.392396500592
 20
155.878627392529
 10
568.419927886014
 20
155.998414847134
 10
568.4474783449219
 20
156.114178988217
 10
568.475066950803
 20
156.22567782092
 10
568.5027080087709
 20
156.332658621549
 10
568.5303252248809
 20
156.43453964877
 10
568.557893565183
 20
156.53098950076
 10
568.5854332952549
 20
156.621842476605
 10
568.61296229649
 20
156.706932875394
 10
568.640496066098
 20
156.786094996213
 10
568.668053677563
 20
156.859165522336
 10
568.695654204373
 20
156.92597875285
 10
568.723302414898
 20
156.986345144986
 10
568.750937512402
 20
157.039958330868
 10
568.778559496884
 20
157.086691948651
 10
568.8061886339229
 20
157.126455399274
 10
568.8338392286339
 20
157.159158083676
 10
568.86147909451
 20
157.18466887164
 10
568.889102271084
 20
157.202929350613
 10
568.9167290239379
 20
157.213907334088
 10
568.944374850277
 20
157.217573019742
  0
LWPOLYLINE
  5
715
330
1F
100
AcDbEntity
  8
Sichtbare_Kanten_TC_020513_DIN_
  6
Continuous
 62
     7
100
AcDbPolyline
 90
       25
 70
     0
 43
0.0
 10
568.282113602643
 20
154.890797230481
 10
568.276271155362
 20
154.87690577197
 10
568.2693343668029
 20
154.861258360623
 10
568.261197140698
 20
154.843950363873
 10
568.25175338078
 20
154.825081917523
 10
568.240898182873
 20
154.80475077319
 10
568.228525450711
 20
154.783054682492
 10
568.214529088025
 20
154.760093781232
 10
568.198805382733
 20
154.735964628934
 10
568.1812470464749
 20
154.710764977216
 10
568.161747982983
 20
154.684596153973
 10
568.140204480176
 20
154.657553526639
 10
568.116989663129
 20
154.630307051419
 10
568.093419602398
 20
154.6044195621
 10
568.069754174237
 20
154.579982849835
 10
568.0461864976929
 20
154.557006451367
 10
568.0229120760009
 20
154.535499903439
 10
568.000126412396
 20
154.515475126981
 10
567.97802381802
 20
154.496939274548
 10
567.956800988202
 20
154.479903074979
 10
567.936651041989
 20
154.464377257108
 10
567.9177694826169
 20
154.450371357678
 10
567.900351813321
 20
154.437896105527
 10
567.884592345242
 20
154.426959845303
 10
567.8706853895239
 20
154.417573305844
  0
LWPOLYLINE
  5
716
330
1F
100
AcDbEntity
  8
Sichtbare_Kanten_TC_020513_DIN_
  6
Continuous
 62
     7
100
AcDbPolyline
 90
       25
 70
     0
 43
0.0
 10
568.944374850277
 20
155.817573162793
 10
568.916718295101
 20
155.815738531827
 10
568.889116576199
 20
155.810254904507
 10
568.8615530042689
 20
155.801149698971
 10
568.834008505825
 20
155.788453909634
 10
568.806466391567
 20
155.772196146726
 10
568.7789075880089
 20
155.752403828381
 10
568.7513142137569
 20
155.729107949017
 10
568.723668387417
 20
155.702337118863
 10
568.6960022954979
 20
155.6721783607
 10
568.668393424038
 20
155.638799759625
 10
568.640823891644
 20
155.602288338422
 10
568.613278201108
 20
155.562723967313
 10
568.5857360868499
 20
155.520190092801
 10
568.55818085957
 20
155.474768969296
 10
568.530594637875
 20
155.426541659116
 10
568.502959540371
 20
155.375591608762
 10
568.475287487988
 20
155.322061869382
 10
568.447664311413
 20
155.26625880885
 10
568.420079281811
 20
155.20831951785
 10
568.392515709881
 20
155.148364397763
 10
568.36495571423
 20
155.086515042065
 10
568.337380221371
 20
155.022889467954
 10
568.309772542004
 20
154.957610460996
 10
568.282113602643
 20
154.890797230481
  0
LWPOLYLINE
  5
717
330
1F
100
AcDbEntity
  8
Sichtbare_Kanten_TC_020513_DIN_
  6
Continuous
 62
     7
100
AcDbPolyline
 90
       25
 70
     0
 43
0.0
 10
567.67880492497
 20
143.25742790389
 10
567.668977311139
 20
143.303792270898
 10
567.659153273587
 20
143.350513371705
 10
567.649331620221
 20
143.397579583405
 10
567.639513543134
 20
143.444978687047
 10
567.629696658139
 20
143.492699059724
 10
567.6198797731449
 20
143.540728780507
 10
567.610064080243
 20
143.589055332421
 10
567.6002471952489
 20
143.637667390584
 10
567.590429118161
 20
143.686552736043
 10
567.580607464795
 20
143.735699149846
 10
567.570783427243
 20
143.785094711064
 10
567.56095462132
 20
143.834728094815
 10
567.551127007489
 20
143.884562346219
 10
567.541302969937
 20
143.934559318303
 10
567.531481316571
 20
143.984707686185
 10
567.5216632394839
 20
144.034994336842
 10
567.511846354489
 20
144.085406157254
 10
567.502029469495
 20
144.135931822537
 10
567.492213776593
 20
144.18655821967
 10
567.4823968915989
 20
144.237272235631
 10
567.4725788145109
 20
144.28806194949
 10
567.462757161145
 20
144.338914844273
 10
567.452933123593
 20
144.389817806958
 10
567.443105509763
 20
144.440758916615
  0
LWPOLYLINE
  5
718
330
1F
100
AcDbEntity
  8
Sichtbare_Kanten_TC_020513_DIN_
  6
Continuous
 62
     7
100
AcDbPolyline
 90
       25
 70
     0
 43
0.0
 10
567.443105509763
 20
144.440758916615
 10
567.452933123593
 20
144.41528865981
 10
567.462757161145
 20
144.389836880444
 10
567.4725788145109
 20
144.364410731076
 10
567.482396891598
 20
144.339015576123
 10
567.492213776593
 20
144.313658568143
 10
567.502029469494
 20
144.2883456676
 10
567.511846354489
 20
144.263082834958
 10
567.5216632394839
 20
144.237876626729
 10
567.531481316571
 20
144.212733599423
 10
567.541302969937
 20
144.187659117459
 10
567.551127007489
 20
144.16266092944
 10
567.560954621319
 20
144.137743803738
 10
567.570783427243
 20
144.11292681384
 10
567.580607464795
 20
144.088229033231
 10
567.590429118161
 20
144.063655826329
 10
567.6002471952479
 20
144.0392131536
 10
567.610064080243
 20
144.014906975507
 10
567.619879773144
 20
143.990743848561
 10
567.629696658139
 20
143.966729137181
 10
567.639513543133
 20
143.942868801831
 10
567.649331620221
 20
143.919169399022
 10
567.659153273587
 20
143.895636293172
 10
567.668977311139
 20
143.872275444745
 10
567.678804924969
 20
143.849093410252
  0
LWPOLYLINE
  5
719
330
1F
100
AcDbEntity
  8
Sichtbare_Kanten_TC_020513_DIN_
  6
Continuous
 62
     7
100
AcDbPolyline
 90
       25
 70
     0
 43
0.0
 10
559.608605435377
 20
156.221931072949
 10
559.6051841287659
 20
156.230859848737
 10
559.601905873304
 20
156.239787432431
 10
559.59877543736
 20
156.248715016126
 10
559.595788052564
 20
156.25764259982
 10
559.592946103101
 20
156.266568991422
 10
559.590247204786
 20
156.275496575116
 10
559.5876961259889
 20
156.284422966717
 10
559.58528809834
 20
156.293350550412
 10
559.583025506025
 20
156.302276942014
 10
559.5809083490419
 20
156.311204525708
 10
559.578936627393
 20
156.320133301495
 10
559.577112725263
 20
156.329062077283
 10
559.57543187428
 20
156.337989660977
 10
559.573896458631
 20
156.346918436765
 10
559.572508862501
 20
156.355846020459
 10
559.571266701704
 20
156.364773604153
 10
559.57016997624
 20
156.373699995755
 10
559.5692210702949
 20
156.38262757945
 10
559.568415215497
 20
156.391553971051
 10
559.5677571802189
 20
156.400480362653
 10
559.56724696446
 20
156.409407946347
 10
559.5668797998479
 20
156.418335530041
 10
559.5666604547549
 20
156.427264305829
 10
559.566586544996
 20
156.436191889523
  0
LWPOLYLINE
  5
71A
330
1F
100
AcDbEntity
  8
Sichtbare_Kanten_TC_020513_DIN_
  6
Continuous
 62
     7
100
AcDbPolyline
 90
       25
 70
     0
 43
0.0
 10
560.966587594038
 20
156.436191889523
 10
560.9666233568239
 20
156.427264305829
 10
560.966733029371
 20
156.418335530041
 10
560.966916611677
 20
156.409407946347
 10
560.967171719556
 20
156.400480362653
 10
560.9675007371959
 20
156.391553971051
 10
560.9679036645939
 20
156.38262757945
 10
560.968378117567
 20
156.373699995755
 10
560.9689264802989
 20
156.364773604153
 10
560.9695487527899
 20
156.355846020459
 10
560.970242550855
 20
156.346918436765
 10
560.9710102586799
 20
156.337989660977
 10
560.971849492078
 20
156.329062077283
 10
560.972762635236
 20
156.320133301495
 10
560.9737473039679
 20
156.311204525708
 10
560.9748058824589
 20
156.302276942014
 10
560.97593837071
 20
156.293350550412
 10
560.977142384534
 20
156.284422966717
 10
560.9784179239319
 20
156.275496575116
 10
560.97976737309
 20
156.266568991422
 10
560.9811883478219
 20
156.25764259982
 10
560.982680848127
 20
156.248715016126
 10
560.984247258191
 20
156.239787432431
 10
560.98588519383
 20
156.230859848737
 10
560.9875970392279
 20
156.221931072949
  0
LWPOLYLINE
  5
71B
330
1F
100
AcDbEntity
  8
Sichtbare_Kanten_TC_020513_DIN_
  6
Continuous
 62
     7
100
AcDbPolyline
 90
       25
 70
     0
 43
0.0
 10
562.366588643079
 20
155.325145813702
 10
562.351117661481
 20
155.338420960187
 10
562.335646679883
 20
155.351696106671
 10
562.320178082471
 20
155.364970061063
 10
562.304711869244
 20
155.378244015454
 10
562.289248040204
 20
155.391516777753
 10
562.273786595349
 20
155.404790732144
 10
562.25832753468
 20
155.418064686536
 10
562.242870858197
 20
155.431337448834
 10
562.2274189500849
 20
155.444611403226
 10
562.21196942616
 20
155.457885357617
 10
562.196524670605
 20
155.471160504101
 10
562.1810870676089
 20
155.484434458493
 10
562.165651848797
 20
155.497709604977
 10
562.150223782544
 20
155.510984751462
 10
562.1348052530329
 20
155.524258705853
 10
562.119391491894
 20
155.537532660245
 10
562.103987267499
 20
155.550805422543
 10
562.08859019566
 20
155.564079376935
 10
562.0732026605649
 20
155.577353331326
 10
562.057822278027
 20
155.590626093625
 10
562.042451432233
 20
155.603900048016
 10
562.027090123181
 20
155.617174002408
 10
562.011740735058
 20
155.630449148892
 10
561.9963984994929
 20
155.643724295377
  0
LWPOLYLINE
  5
71C
330
1F
100
AcDbEntity
  8
Sichtbare_Kanten_TC_020513_DIN_
  6
Continuous
 62
     7
100
AcDbPolyline
 90
       25
 70
     0
 43
0.0
 10
562.181492379193
 20
155.643724295377
 10
562.189164689069
 20
155.630449148892
 10
562.1968393831299
 20
155.617174002408
 10
562.2045188455629
 20
155.603900048016
 10
562.2122054605529
 20
155.590626093625
 10
562.219894459729
 20
155.577353331326
 10
562.227588227277
 20
155.564079376935
 10
562.235286763196
 20
155.550805422543
 10
562.242990067487
 20
155.537532660245
 10
562.250695755963
 20
155.524258705853
 10
562.2584062128119
 20
155.510984751462
 10
562.266119053846
 20
155.497709604977
 10
562.2738366632509
 20
155.484434458493
 10
562.281556656842
 20
155.471160504101
 10
562.289279034619
 20
155.457885357617
 10
562.297003796582
 20
155.444611403226
 10
562.304728558545
 20
155.431337448834
 10
562.31245808888
 20
155.418064686536
 10
562.3201876192139
 20
155.404790732144
 10
562.327917149549
 20
155.391516777753
 10
562.335649064069
 20
155.378244015454
 10
562.343383362775
 20
155.364970061063
 10
562.351117661481
 20
155.351696106671
 10
562.3588519601869
 20
155.338420960187
 10
562.366588643079
 20
155.325145813702
  0
LWPOLYLINE
  5
71D
330
1F
100
AcDbEntity
  8
Sichtbare_Kanten_TC_020513_DIN_
  6
Continuous
 62
     7
100
AcDbPolyline
 90
       25
 70
     0
 43
0.0
 10
561.9963984994929
 20
155.643724295377
 10
561.982985070233
 20
155.655086132764
 10
561.966350605969
 20
155.668698641537
 10
561.946526101117
 20
155.684287640332
 10
561.9235401659059
 20
155.701584908246
 10
561.8974261789369
 20
155.720318648099
 10
561.868210366254
 20
155.740218254804
 10
561.8359237222719
 20
155.761014315366
 10
561.800597241406
 20
155.782433840512
 10
561.762259533887
 20
155.804207417248
 10
561.7209415941279
 20
155.826064440488
 10
561.676672032361
 20
155.847734305142
 10
561.629481842999
 20
155.868946406125
 10
561.5794020204589
 20
155.889428946256
 10
561.5266066103029
 20
155.908870789288
 10
561.4729958086059
 20
155.926557871579
 10
561.419215729718
 20
155.942322108029
 10
561.3653545885129
 20
155.956176611661
 10
561.311500599866
 20
155.968138071774
 10
561.2577395944639
 20
155.978220793485
 10
561.204159787183
 20
155.98643669772
 10
561.15084700871
 20
155.992802473782
 10
561.09788947392
 20
155.997331234692
 10
561.0453753976869
 20
156.000037285565
 10
560.993390610699
 20
156.000936123608
  0
LWPOLYLINE
  5
71E
330
1F
100
AcDbEntity
  8
Sichtbare_Kanten_TC_020513_DIN_
  6
Continuous
 62
     7
100
AcDbPolyline
 90
       25
 70
     0
 43
0.0
 10
561.679988434796
 20
156.000936123608
 10
561.7074590234799
 20
155.999920460461
 10
561.73502259541
 20
155.996897312878
 10
561.7626219301269
 20
155.991906019925
 10
561.790199807172
 20
155.984984728574
 10
561.817699006086
 20
155.97617277789
 10
561.845055153852
 20
155.965513083218
 10
561.872001221662
 20
155.953148695706
 10
561.898408463483
 20
155.93919763255
 10
561.924241116529
 20
155.92374214816
 10
561.949461033826
 20
155.906864496945
 10
561.9740300684019
 20
155.888649317502
 10
561.997914841657
 20
155.869178864239
 10
562.020986607556
 20
155.848617645978
 10
562.042699387555
 20
155.82756409335
 10
562.0629768877079
 20
155.806312653302
 10
562.0818214922
 20
155.785089823483
 10
562.0992403535889
 20
155.76412448573
 10
562.11523108769
 20
155.743645521878
 10
562.129803231244
 20
155.723879429578
 10
562.142959168439
 20
155.705053898572
 10
562.154703667646
 20
155.687397810696
 10
562.1650367288639
 20
155.671138855695
 10
562.1739655046509
 20
155.656504723309
 10
562.181492379193
 20
155.643724295377
  0
LWPOLYLINE
  5
71F
330
1F
100
AcDbEntity
  8
Sichtbare_Kanten_TC_020513_DIN_
  6
Continuous
 62
     7
100
AcDbPolyline
 90
       25
 70
     0
 43
0.0
 10
559.9975281267209
 20
156.000936123608
 10
559.968109658246
 20
156.001474949597
 10
559.939687779431
 20
156.003095003842
 10
559.912272027021
 20
156.005801054715
 10
559.885871937757
 20
156.009597870587
 10
559.860497048383
 20
156.014487835644
 10
559.8361592798279
 20
156.020476910351
 10
559.81286578465
 20
156.027568670987
 10
559.790628483777
 20
156.035767885922
 10
559.7694592981389
 20
156.045078131436
 10
559.749374917035
 20
156.055499407529
 10
559.730787804609
 20
156.066781374692
 10
559.71383862782
 20
156.078695151089
 10
559.698441555982
 20
156.091104838132
 10
559.684520295148
 20
156.103876921414
 10
559.671993783002
 20
156.11687669444
 10
559.660778573041
 20
156.129969450711
 10
559.650795987134
 20
156.143021675824
 10
559.6419625787789
 20
156.155897471188
 10
559.6341996698429
 20
156.1684633224
 10
559.627426198011
 20
156.180583330868
 10
559.621561100965
 20
156.192125174283
 10
559.616523316388
 20
156.202952954053
 10
559.612231781965
 20
156.212933155774
 10
559.608605435377
 20
156.221931072949
  0
LWPOLYLINE
  5
720
330
1F
100
AcDbEntity
  8
Sichtbare_Kanten_TC_020513_DIN_
  6
Continuous
 62
     7
100
AcDbPolyline
 90
       25
 70
     0
 43
0.0
 10
560.9875970392279
 20
156.221931072949
 10
560.989423325544
 20
156.212847325085
 10
560.9915595560129
 20
156.202868315457
 10
560.994048645978
 20
156.192113253354
 10
560.9969263582279
 20
156.180706116437
 10
561.0002403764779
 20
156.168767306088
 10
561.0040264635139
 20
156.156418415784
 10
561.008325150495
 20
156.143782231091
 10
561.013179352766
 20
156.130979153394
 10
561.018629601484
 20
156.118131968259
 10
561.024716427808
 20
156.105362269162
 10
561.031477978712
 20
156.092791649579
 10
561.038959553724
 20
156.080541702985
 10
561.047196915632
 20
156.068734022855
 10
561.056232979779
 20
156.057491394757
 10
561.0660391359379
 20
156.047006937741
 10
561.0764699487739
 20
156.037529799222
 10
561.087523034101
 20
156.029090973614
 10
561.099207928663
 20
156.021710726498
 10
561.111536553388
 20
156.015410515546
 10
561.124489834791
 20
156.010220143079
 10
561.1380272417119
 20
156.00616941142
 10
561.152139237409
 20
156.003266665219
 10
561.166816285138
 20
156.001520249127
 10
561.1820583849
 20
156.000936123608
  0
SOLID
  5
721
330
1F
100
AcDbEntity
  8
Symbole_TC_020513_DIN_
 62
     7
100
AcDbTrace
 10
559.5485763754314
 20
80.49025934293785
 30
0.0
 11
559.0371054201909
 21
80.90463473430455
 31
0.0
 12
560.866587689404
 22
82.6399508445251
 32
0.0
 13
560.866587689404
 23
82.6399508445251
 33
0.0
  0
LEADER
  5
722
330
1F
100
AcDbEntity
  8
Symbole_TC_020513_DIN_
  6
Continuous
 62
     7
100
AcDbLeader
  3
Standard
 71
     0
 76
     3
 10
560.866587689404
 20
82.6399508445251
 30
0.0
 10
546.2716608015199
 20
64.62517160681199
 30
0.0
 10
544.5716608015209
 20
64.62517160681199
 30
0.0
  0
MTEXT
  5
724
330
1F
100
AcDbEntity
  8
Symbole_TC_020513_DIN_
 62
     7
100
AcDbMText
 10
530.3390734163429
 20
66.3751715770097
 30
0.0
 40
3.5
 41
0.0
 71
     1
 72
     1
  1
n\P5,5
  7
CONVERTER_13
 73
     1
 44
0.75727272727273
  0
DIMENSION
  5
72F
330
1F
100
AcDbEntity
  8
Bemaßungen_TC_020513_DIN_
100
AcDbDimension
  2
*D3
 10
508.0831783492592
 20
116.5819508445251
 30
0.0
 11
503.66380590724
 21
101.4766357012782
 31
0.0
 70
    32
  1
PG21
 71
     5
 42
-1.0
 53
90.0
  3
ME10_DIM_10
100
AcDbAlignedDimension
 13
493.0831783492599
 23
87.4779508445251
 33
0.0
 14
493.0831783492599
 24
116.581950844525
 34
0.0
 50
90.0
100
AcDbRotatedDimension
  0
DIMENSION
  5
73A
330
1F
100
AcDbEntity
  8
Bemaßungen_TC_020513_DIN_
100
AcDbDimension
  2
*D4
 10
364.6492283775434
 20
173.6399508445251
 30
0.0
 11
435.1924075443482
 21
178.013961758577
 31
0.0
 70
    32
  1
140
 71
     5
 42
-1.0
 53
0.00013888888889
  3
ME10_DIM_11
100
AcDbAlignedDimension
 13
504.517128320976
 23
127.639950844525
 33
0.0
 14
364.6492283775434
 24
127.639950844525
 34
0.0
100
AcDbRotatedDimension
  0
DIMENSION
  5
745
330
1F
100
AcDbEntity
  8
Bemaßungen_TC_020513_DIN_
100
AcDbDimension
  2
*D5
 10
611.8665876894121
 20
173.6399508445254
 30
0.0
 11
583.729766407011
 21
177.999637065535
 31
0.0
 70
    32
  1
57
 71
     5
 42
-1.0
 53
0.00013888888889
  3
ME10_DIM_12
100
AcDbAlignedDimension
 13
554.866587689412
 23
138.639950844525
 33
0.0
 14
611.8665876894129
 24
138.639950844525
 34
0.0
100
AcDbRotatedDimension
  0
DIMENSION
  5
750
330
1F
100
AcDbEntity
  8
Bemaßungen_TC_020513_DIN_
100
AcDbDimension
  2
*D6
 10
382.0831783492595
 20
68.63995084452515
 30
0.0
 11
435.1733079536251
 21
73.013961758577
 31
0.0
 70
    32
  1
105
 71
     5
 42
-1.0
 53
0.00013888888889
  3
ME10_DIM_13
100
AcDbAlignedDimension
 13
487.0831783492599
 23
84.6399508445251
 33
0.0
 14
382.0831783492595
 24
84.6399508445251
 34
0.0
100
AcDbRotatedDimension
  0
DIMENSION
  5
75B
330
1F
100
AcDbEntity
  8
Bemaßungen_TC_020513_DIN_
100
AcDbDimension
  2
*D7
 10
376.0831783492594
 20
58.8342543808874
 30
0.0
 11
435.1864389222471
 21
63.1485790739297
 31
0.0
 70
    32
  1
117
 71
     5
 42
-1.0
 53
0.00013888888889
  3
ME10_DIM_14
100
AcDbAlignedDimension
 13
493.0831783492599
 23
84.6399508445251
 33
0.0
 14
376.0831783492595
 24
84.6399508445251
 34
0.0
100
AcDbRotatedDimension
  0
DIMENSION
  5
766
330
1F
100
AcDbEntity
  8
Bemaßungen_TC_020513_DIN_
100
AcDbDimension
  2
*D8
 10
560.8665876894045
 20
68.63995084452516
 30
0.0
 11
583.64620569759
 21
72.9996370655347
 31
0.0
 70
    32
  1
45
 71
     5
 42
-1.0
 53
0.00013888888889
  3
ME10_DIM_15
100
AcDbAlignedDimension
 13
605.866587689404
 23
84.6399508445251
 33
0.0
 14
560.866587689404
 24
84.6399508445251
 34
0.0
100
AcDbRotatedDimension
  0
DIMENSION
  5
771
330
1F
100
AcDbEntity
  8
Bemaßungen_TC_020513_DIN_
100
AcDbDimension
  2
*D9
 10
554.8665876894021
 20
58.83425438088744
 30
0.0
 11
583.729766407001
 21
63.193940601897
 31
0.0
 70
    32
  1
57
 71
     5
 42
-1.0
 53
0.00013888888889
  3
ME10_DIM_16
100
AcDbAlignedDimension
 13
611.866587689402
 23
84.6399508445251
 33
0.0
 14
554.866587689402
 24
84.6399508445251
 34
0.0
100
AcDbRotatedDimension
  0
DIMENSION
  5
77C
330
1F
100
AcDbEntity
  8
Bemaßungen_TC_020513_DIN_
100
AcDbDimension
  2
*D10
 10
532.8665876894019
 20
82.6399508445254
 30
0.0
 11
528.49257677535
 21
123.838566124198
 31
0.0
 70
    32
  1
81
 71
     5
 42
-1.0
 53
90.0
  3
ME10_DIM_17
100
AcDbAlignedDimension
 13
559.566587689411
 23
163.639950844525
 33
0.0
 14
554.866587689402
 24
82.6399508445251
 34
0.0
 50
90.0
100
AcDbRotatedDimension
  0
DIMENSION
  5
787
330
1F
100
AcDbEntity
  8
Bemaßungen_TC_020513_DIN_
100
AcDbDimension
  2
*D11
 10
519.0831783492592
 20
145.6399508445256
 30
0.0
 11
514.706779986367
 21
114.493579766763
 31
0.0
 70
    32
  1
63
 71
     5
 42
-1.0
 53
90.0
  3
ME10_DIM_18
100
AcDbAlignedDimension
 13
479.0831783492599
 23
82.6399508445251
 33
0.0
 14
478.23317834926
 24
145.639950844525
 34
0.0
 50
90.0
100
AcDbRotatedDimension
  0
DIMENSION
  5
792
330
1F
100
AcDbEntity
  8
Bemaßungen_TC_020513_DIN_
100
AcDbDimension
  2
*D12
 10
544.866587689402
 20
82.63995084452513
 30
0.0
 11
540.566587689402
 21
84.8645142824515
 31
0.0
 70
    32
  1
4
 71
     5
 42
-1.0
 53
90.0
  3
ME10_DIM_19
100
AcDbAlignedDimension
 13
554.866587689402
 23
86.6399508445251
 33
0.0
 14
554.866587689402
 24
82.6399508445251
 34
0.0
 50
90.0
100
AcDbRotatedDimension
  0
ENDSEC
  0
SECTION
  2
OBJECTS
  0
DICTIONARY
  5
C
330
0
100
AcDbDictionary
281
     1
  3
ACAD_GROUP
350
D
  3
ACAD_LAYOUT
350
1A
  3
ACAD_MATERIAL
350
3B
  3
ACAD_MLEADERSTYLE
350
795
  3
ACAD_MLINESTYLE
350
17
  3
ACAD_PLOTSETTINGS
350
19
  3
ACAD_PLOTSTYLENAME
350
E
  3
ACAD_VISUALSTYLE
350
2A
  3
AcDbVariableDictionary
350
793
  0
DICTIONARY
  5
D
102
{ACAD_REACTORS
330
C
102
}
330
C
100
AcDbDictionary
281
     1
  0
DICTIONARY
  5
1A
102
{ACAD_REACTORS
330
C
102
}
330
C
100
AcDbDictionary
281
     1
  3
Layout1
350
1E
  3
Layout2
350
26
  3
Model
350
22
  0
DICTIONARY
  5
3B
102
{ACAD_REACTORS
330
C
102
}
330
C
100
AcDbDictionary
281
     1
  3
ByBlock
350
3D
  3
ByLayer
350
3C
  3
Global
350
3E
  0
DICTIONARY
  5
795
102
{ACAD_REACTORS
330
C
102
}
330
C
100
AcDbDictionary
281
     1
  0
DICTIONARY
  5
17
102
{ACAD_REACTORS
330
C
102
}
330
C
100
AcDbDictionary
281
     1
  3
Standard
350
18
  0
DICTIONARY
  5
19
102
{ACAD_REACTORS
330
C
102
}
330
C
100
AcDbDictionary
281
     1
  0
ACDBDICTIONARYWDFLT
  5
E
102
{ACAD_REACTORS
330
C
102
}
330
C
100
AcDbDictionary
281
     1
  3
Normal
350
F
100
AcDbDictionaryWithDefault
340
F
  0
DICTIONARY
  5
2A
102
{ACAD_REACTORS
330
C
102
}
330
C
100
AcDbDictionary
281
     1
  3
2dWireframe
350
2F
  3
3D Hidden
350
31
  3
3dWireframe
350
30
  3
Basic
350
32
  3
Brighten
350
36
  3
ColorChange
350
3A
  3
Conceptual
350
34
  3
Dim
350
35
  3
Facepattern
350
39
  3
Flat
350
2B
  3
FlatWithEdges
350
2C
  3
Gouraud
350
2D
  3
GouraudWithEdges
350
2E
  3
Linepattern
350
38
  3
Realistic
350
33
  3
Thicken
350
37
  0
DICTIONARY
  5
793
102
{ACAD_REACTORS
330
C
102
}
330
C
100
AcDbDictionary
281
     1
  3
DIMASSOC
350
796
  3
HIDETEXT
350
797
  0
LAYOUT
  5
1E
102
{ACAD_REACTORS
330
1A
102
}
330
1A
100
AcDbPlotSettings
  1

  2
none_device
  4

  6

 40
0.0
 41
0.0
 42
0.0
 43
0.0
 44
0.0
 45
0.0
 46
0.0
 47
0.0
 48
0.0
 49
0.0
140
0.0
141
0.0
142
1.0
143
1.0
 70
   688
 72
     0
 73
     0
 74
     5
  7

 75
    16
147
1.0
148
0.0
149
0.0
100
AcDbLayout
  1
Layout1
 70
     1
 71
     1
 10
0.0
 20
0.0
 11
12.0
 21
9.0
 12
0.0
 22
0.0
 32
0.0
 14
1.00000000000000E+20
 24
1.00000000000000E+20
 34
1.00000000000000E+20
 15
-1.00000000000000E+20
 25
-1.00000000000000E+20
 35
-1.00000000000000E+20
146
0.0
 13
0.0
 23
0.0
 33
0.0
 16
1.0
 26
0.0
 36
0.0
 17
0.0
 27
1.0
 37
0.0
 76
     0
330
1B
  0
LAYOUT
  5
26
102
{ACAD_REACTORS
330
1A
102
}
330
1A
100
AcDbPlotSettings
  1

  2
none_device
  4

  6

 40
0.0
 41
0.0
 42
0.0
 43
0.0
 44
0.0
 45
0.0
 46
0.0
 47
0.0
 48
0.0
 49
0.0
140
0.0
141
0.0
142
1.0
143
1.0
 70
   688
 72
     0
 73
     0
 74
     5
  7

 75
    16
147
1.0
148
0.0
149
0.0
100
AcDbLayout
  1
Layout2
 70
     1
 71
     2
 10
0.0
 20
0.0
 11
0.0
 21
0.0
 12
0.0
 22
0.0
 32
0.0
 14
0.0
 24
0.0
 34
0.0
 15
0.0
 25
0.0
 35
0.0
146
0.0
 13
0.0
 23
0.0
 33
0.0
 16
1.0
 26
0.0
 36
0.0
 17
0.0
 27
1.0
 37
0.0
 76
     0
330
23
  0
LAYOUT
  5
22
102
{ACAD_REACTORS
330
1A
102
}
330
1A
100
AcDbPlotSettings
  1

  2
none_device
  4

  6

 40
0.0
 41
0.0
 42
0.0
 43
0.0
 44
0.0
 45
0.0
 46
0.0
 47
0.0
 48
0.0
 49
0.0
140
0.0
141
0.0
142
1.0
143
1.0
 70
  1712
 72
     0
 73
     0
 74
     0
  7

 75
     0
147
1.0
148
0.0
149
0.0
100
AcDbLayout
  1
Model
 70
     1
 71
     0
 10
0.0
 20
0.0
 11
12.0
 21
9.0
 12
0.0
 22
0.0
 32
0.0
 14
338.8654851797119
 24
4.99999999999993
 34
0.0
 15
635.865485179712
 25
215.0
 35
0.0
146
0.0
 13
0.0
 23
0.0
 33
0.0
 16
1.0
 26
0.0
 36
0.0
 17
0.0
 27
1.0
 37
0.0
 76
     0
330
1F
331
29
  0
MATERIAL
  5
3D
102
{ACAD_REACTORS
330
3B
102
}
102
{ACAD_XDICTIONARY
360
7BA
102
}
330
3B
100
AcDbMaterial
  1
ByBlock
  0
MATERIAL
  5
3C
102
{ACAD_REACTORS
330
3B
102
}
102
{ACAD_XDICTIONARY
360
7B8
102
}
330
3B
100
AcDbMaterial
  1
ByLayer
  0
MATERIAL
  5
3E
102
{ACAD_REACTORS
330
3B
102
}
102
{ACAD_XDICTIONARY
360
7BC
102
}
330
3B
100
AcDbMaterial
  1
Global
  0
MLINESTYLE
  5
18
102
{ACAD_REACTORS
330
17
102
}
330
17
100
AcDbMlineStyle
  2
Standard
 70
     0
  3

 62
   256
 51
90.0
 52
90.0
 71
     2
 49
0.5
 62
   256
  6
BYLAYER
 49
-0.5
 62
   256
  6
BYLAYER
  0
ACDBPLACEHOLDER
  5
F
102
{ACAD_REACTORS
330
E
102
}
330
E
  0
VISUALSTYLE
  5
2F
102
{ACAD_REACTORS
330
2A
102
}
102
{ACAD_XDICTIONARY
360
7A0
102
}
330
2A
100
AcDbVisualStyle
  2
2dWireframe
 70
     4
 71
     0
 72
     2
 73
     0
 90
        0
 40
-0.6
 41
-30.0
 62
     5
 63
     7
 74
     1
 91
        4
 64
     7
 65
   257
 75
     1
175
     1
 42
1.0
 92
        0
 66
   257
 43
1.0
 76
     1
 77
     6
 78
     2
 67
     7
 79
     5
170
     0
171
     0
290
     0
174
     0
 93
        1
 44
0.0
173
     0
291
     0
 45
0.0
1001
ACAD
1000
AcDbSavedByObjectVersion
1070
     0
  0
VISUALSTYLE
  5
31
102
{ACAD_REACTORS
330
2A
102
}
102
{ACAD_XDICTIONARY
360
7A4
102
}
330
2A
100
AcDbVisualStyle
  2
3D Hidden
 70
     6
 71
     1
 72
     2
 73
     2
 90
        0
 40
-0.6
 41
-30.0
 62
     5
 63
     7
 74
     2
 91
        2
 64
     7
 65
   257
 75
     2
175
     1
 42
40.0
 92
        0
 66
   257
 43
1.0
 76
     1
 77
     6
 78
     2
 67
     7
 79
     3
170
     0
171
     0
290
     0
174
     0
 93
        1
 44
0.0
173
     0
291
     0
 45
0.0
1001
ACAD
1000
AcDbSavedByObjectVersion
1070
     0
  0
VISUALSTYLE
  5
30
102
{ACAD_REACTORS
330
2A
102
}
102
{ACAD_XDICTIONARY
360
7A2
102
}
330
2A
100
AcDbVisualStyle
  2
3dWireframe
 70
     5
 71
     0
 72
     2
 73
     0
 90
        0
 40
-0.6
 41
-30.0
 62
     5
 63
     7
 74
     1
 91
        4
 64
     7
 65
   257
 75
     1
175
     1
 42
1.0
 92
        0
 66
   257
 43
1.0
 76
     1
 77
     6
 78
     2
 67
     7
 79
     5
170
     0
171
     0
290
     0
174
     0
 93
        1
 44
0.0
173
     0
291
     0
 45
0.0
1001
ACAD
1000
AcDbSavedByObjectVersion
1070
     0
  0
VISUALSTYLE
  5
32
102
{ACAD_REACTORS
330
2A
102
}
102
{ACAD_XDICTIONARY
360
7A6
102
}
330
2A
100
AcDbVisualStyle
  2
Basic
 70
     7
 71
     1
 72
     0
 73
     1
 90
        0
 40
-0.6
 41
-30.0
 62
     5
 63
     7
 74
     0
 91
        4
 64
     7
 65
   257
 75
     1
175
     1
 42
1.0
 92
        8
 66
     7
 43
1.0
 76
     1
 77
     6
 78
     2
 67
     7
 79
     5
170
     0
171
     0
290
     0
174
     0
 93
        1
 44
0.0
173
     0
291
     1
 45
0.0
1001
ACAD
1000
AcDbSavedByObjectVersion
1070
     0
  0
VISUALSTYLE
  5
36
102
{ACAD_REACTORS
330
2A
102
}
102
{ACAD_XDICTIONARY
360
7AE
102
}
330
2A
100
AcDbVisualStyle
  2
Brighten
 70
    12
 71
     2
 72
     2
 73
     0
 90
        0
 40
-0.6
 41
-30.0
 62
     5
 63
     7
 74
     1
 91
        4
 64
     7
 65
   257
 75
     1
175
     1
 42
1.0
 92
        8
 66
     7
 43
1.0
 76
     1
 77
     6
 78
     2
 67
     7
 79
     5
170
     0
171
     0
290
     0
174
     0
 93
        1
 44
50.0
173
     0
291
     1
 45
0.0
1001
ACAD
1000
AcDbSavedByObjectVersion
1070
     0
  0
VISUALSTYLE
  5
3A
102
{ACAD_REACTORS
330
2A
102
}
102
{ACAD_XDICTIONARY
360
7B6
102
}
330
2A
100
AcDbVisualStyle
  2
ColorChange
 70
    16
 71
     2
 72
     2
 73
     3
 90
        0
 40
-0.6
 41
-30.0
 62
     5
 63
     8
 74
     1
 91
        4
 64
     7
 65
   257
 75
     1
175
     1
 42
1.0
 92
        8
 66
     8
 43
1.0
 76
     1
 77
     6
 78
     2
 67
     7
 79
     5
170
     0
171
     0
290
     0
174
     0
 93
        1
 44
0.0
173
     0
291
     1
 45
0.0
1001
ACAD
1000
AcDbSavedByObjectVersion
1070
     0
  0
VISUALSTYLE
  5
34
102
{ACAD_REACTORS
330
2A
102
}
102
{ACAD_XDICTIONARY
360
7AA
102
}
330
2A
100
AcDbVisualStyle
  2
Conceptual
 70
     9
 71
     3
 72
     2
 73
     0
 90
        0
 40
-0.6
 41
-30.0
 62
     5
 63
     7
 74
     2
 91
        2
 64
     7
 65
   257
 75
     1
175
     1
 42
40.0
 92
        8
 66
     7
 43
1.0
 76
     1
 77
     6
 78
     2
 67
     7
 79
     3
170
     0
171
     0
290
     0
174
     0
 93
        1
 44
0.0
173
     0
291
     0
 45
0.0
1001
ACAD
1000
AcDbSavedByObjectVersion
1070
     0
  0
VISUALSTYLE
  5
35
102
{ACAD_REACTORS
330
2A
102
}
102
{ACAD_XDICTIONARY
360
7AC
102
}
330
2A
100
AcDbVisualStyle
  2
Dim
 70
    11
 71
     2
 72
     2
 73
     0
 90
        0
 40
-0.6
 41
-30.0
 62
     5
 63
     7
 74
     1
 91
        4
 64
     7
 65
   257
 75
     1
175
     1
 42
1.0
 92
        8
 66
     7
 43
1.0
 76
     1
 77
     6
 78
     2
 67
     7
 79
     5
170
     0
171
     0
290
     0
174
     0
 93
        1
 44
-50.0
173
     0
291
     1
 45
0.0
1001
ACAD
1000
AcDbSavedByObjectVersion
1070
     0
  0
VISUALSTYLE
  5
39
102
{ACAD_REACTORS
330
2A
102
}
102
{ACAD_XDICTIONARY
360
7B4
102
}
330
2A
100
AcDbVisualStyle
  2
Facepattern
 70
    15
 71
     2
 72
     2
 73
     0
 90
        0
 40
-0.6
 41
-30.0
 62
     5
 63
     7
 74
     1
 91
        4
 64
     7
 65
   257
 75
     1
175
     1
 42
1.0
 92
        8
 66
     7
 43
1.0
 76
     1
 77
     6
 78
     2
 67
     7
 79
     5
170
     0
171
     0
290
     0
174
     0
 93
        1
 44
0.0
173
     0
291
     1
 45
0.0
1001
ACAD
1000
AcDbSavedByObjectVersion
1070
     0
  0
VISUALSTYLE
  5
2B
102
{ACAD_REACTORS
330
2A
102
}
102
{ACAD_XDICTIONARY
360
798
102
}
330
2A
100
AcDbVisualStyle
  2
Flat
 70
     0
 71
     2
 72
     1
 73
     1
 90
        2
 40
-0.6
 41
30.0
 62
     5
 63
     7
 74
     0
 91
        4
 64
     7
 65
   257
 75
     1
175
     1
 42
1.0
 92
        8
 66
     7
 43
1.0
 76
     1
 77
     6
 78
     2
 67
     7
 79
     5
170
     0
171
     0
290
     0
174
     0
 93
       13
 44
0.0
173
     0
291
     1
 45
0.0
1001
ACAD
1000
AcDbSavedByObjectVersion
1070
     0
  0
VISUALSTYLE
  5
2C
102
{ACAD_REACTORS
330
2A
102
}
102
{ACAD_XDICTIONARY
360
79A
102
}
330
2A
100
AcDbVisualStyle
  2
FlatWithEdges
 70
     1
 71
     2
 72
     1
 73
     1
 90
        2
 40
-0.6
 41
30.0
 62
     5
 63
     7
 74
     1
 91
        4
 64
     7
 65
   257
 75
     1
175
     1
 42
1.0
 92
        0
 66
   257
 43
1.0
 76
     1
 77
     6
 78
     2
 67
     7
 79
     5
170
     0
171
     0
290
     0
174
     0
 93
       13
 44
0.0
173
     0
291
     1
 45
0.0
1001
ACAD
1000
AcDbSavedByObjectVersion
1070
     0
  0
VISUALSTYLE
  5
2D
102
{ACAD_REACTORS
330
2A
102
}
102
{ACAD_XDICTIONARY
360
79C
102
}
330
2A
100
AcDbVisualStyle
  2
Gouraud
 70
     2
 71
     2
 72
     2
 73
     1
 90
        2
 40
-0.6
 41
30.0
 62
     5
 63
     7
 74
     0
 91
        4
 64
     7
 65
   257
 75
     1
175
     1
 42
1.0
 92
        0
 66
     7
 43
1.0
 76
     1
 77
     6
 78
     2
 67
     7
 79
     5
170
     0
171
     0
290
     0
174
     0
 93
       13
 44
0.0
173
     0
291
     1
 45
0.0
1001
ACAD
1000
AcDbSavedByObjectVersion
1070
     0
  0
VISUALSTYLE
  5
2E
102
{ACAD_REACTORS
330
2A
102
}
102
{ACAD_XDICTIONARY
360
79E
102
}
330
2A
100
AcDbVisualStyle
  2
GouraudWithEdges
 70
     3
 71
     2
 72
     2
 73
     1
 90
        2
 40
-0.6
 41
30.0
 62
     5
 63
     7
 74
     1
 91
        4
 64
     7
 65
   257
 75
     1
175
     1
 42
1.0
 92
        0
 66
   257
 43
1.0
 76
     1
 77
     6
 78
     2
 67
     7
 79
     5
170
     0
171
     0
290
     0
174
     0
 93
       13
 44
0.0
173
     0
291
     1
 45
0.0
1001
ACAD
1000
AcDbSavedByObjectVersion
1070
     0
  0
VISUALSTYLE
  5
38
102
{ACAD_REACTORS
330
2A
102
}
102
{ACAD_XDICTIONARY
360
7B2
102
}
330
2A
100
AcDbVisualStyle
  2
Linepattern
 70
    14
 71
     2
 72
     2
 73
     0
 90
        0
 40
-0.6
 41
-30.0
 62
     5
 63
     7
 74
     1
 91
        4
 64
     7
 65
   257
 75
     7
175
     7
 42
1.0
 92
        8
 66
     7
 43
1.0
 76
     1
 77
     6
 78
     2
 67
     7
 79
     5
170
     0
171
     0
290
     0
174
     0
 93
        1
 44
0.0
173
     0
291
     1
 45
0.0
1001
ACAD
1000
AcDbSavedByObjectVersion
1070
     0
  0
VISUALSTYLE
  5
33
102
{ACAD_REACTORS
330
2A
102
}
102
{ACAD_XDICTIONARY
360
7A8
102
}
330
2A
100
AcDbVisualStyle
  2
Realistic
 70
     8
 71
     2
 72
     2
 73
     0
 90
        0
 40
-0.6
 41
-30.0
 62
     5
 63
     7
 74
     1
 91
        0
 64
     7
 65
   257
 75
     1
175
     1
 42
1.0
 92
        8
 66
     8
 43
1.0
 76
     1
 77
     6
 78
     2
 67
     7
 79
     5
170
     0
171
     0
290
     0
174
     0
 93
       13
 44
0.0
173
     0
291
     0
 45
0.0
1001
ACAD
1000
AcDbSavedByObjectVersion
1070
     0
  0
VISUALSTYLE
  5
37
102
{ACAD_REACTORS
330
2A
102
}
102
{ACAD_XDICTIONARY
360
7B0
102
}
330
2A
100
AcDbVisualStyle
  2
Thicken
 70
    13
 71
     2
 72
     2
 73
     0
 90
        0
 40
-0.6
 41
-30.0
 62
     5
 63
     7
 74
     1
 91
        4
 64
     7
 65
   257
 75
     1
175
     1
 42
1.0
 92
       12
 66
     7
 43
1.0
 76
     1
 77
     6
 78
     2
 67
     7
 79
     5
170
     0
171
     0
290
     0
174
     0
 93
        1
 44
0.0
173
     0
291
     1
 45
0.0
1001
ACAD
1000
AcDbSavedByObjectVersion
1070
     0
  0
DICTIONARYVAR
  5
796
102
{ACAD_REACTORS
330
793
102
}
330
793
100
DictionaryVariables
280
     0
  1
2
  0
DICTIONARYVAR
  5
797
102
{ACAD_REACTORS
330
793
102
}
330
793
100
DictionaryVariables
280
     0
  1
1
  0
DICTIONARY
  5
7BA
330
3D
100
AcDbDictionary
280
     1
281
     1
  3
ACAD_XREC_ROUNDTRIP
360
7BB
  0
DICTIONARY
  5
7B8
330
3C
100
AcDbDictionary
280
     1
281
     1
  3
ACAD_XREC_ROUNDTRIP
360
7B9
  0
DICTIONARY
  5
7BC
330
3E
100
AcDbDictionary
280
     1
281
     1
  3
ACAD_XREC_ROUNDTRIP
360
7BD
  0
DICTIONARY
  5
7A0
330
2F
100
AcDbDictionary
280
     1
281
     1
  3
ACAD_XREC_ROUNDTRIP
360
7A1
  0
DICTIONARY
  5
7A4
330
31
100
AcDbDictionary
280
     1
281
     1
  3
ACAD_XREC_ROUNDTRIP
360
7A5
  0
DICTIONARY
  5
7A2
330
30
100
AcDbDictionary
280
     1
281
     1
  3
ACAD_XREC_ROUNDTRIP
360
7A3
  0
DICTIONARY
  5
7A6
330
32
100
AcDbDictionary
280
     1
281
     1
  3
ACAD_XREC_ROUNDTRIP
360
7A7
  0
DICTIONARY
  5
7AE
330
36
100
AcDbDictionary
280
     1
281
     1
  3
ACAD_XREC_ROUNDTRIP
360
7AF
  0
DICTIONARY
  5
7B6
330
3A
100
AcDbDictionary
280
     1
281
     1
  3
ACAD_XREC_ROUNDTRIP
360
7B7
  0
DICTIONARY
  5
7AA
330
34
100
AcDbDictionary
280
     1
281
     1
  3
ACAD_XREC_ROUNDTRIP
360
7AB
  0
DICTIONARY
  5
7AC
330
35
100
AcDbDictionary
280
     1
281
     1
  3
ACAD_XREC_ROUNDTRIP
360
7AD
  0
DICTIONARY
  5
7B4
330
39
100
AcDbDictionary
280
     1
281
     1
  3
ACAD_XREC_ROUNDTRIP
360
7B5
  0
DICTIONARY
  5
798
330
2B
100
AcDbDictionary
280
     1
281
     1
  3
ACAD_XREC_ROUNDTRIP
360
799
  0
DICTIONARY
  5
79A
330
2C
100
AcDbDictionary
280
     1
281
     1
  3
ACAD_XREC_ROUNDTRIP
360
79B
  0
DICTIONARY
  5
79C
330
2D
100
AcDbDictionary
280
     1
281
     1
  3
ACAD_XREC_ROUNDTRIP
360
79D
  0
DICTIONARY
  5
79E
330
2E
100
AcDbDictionary
280
     1
281
     1
  3
ACAD_XREC_ROUNDTRIP
360
79F
  0
DICTIONARY
  5
7B2
330
38
100
AcDbDictionary
280
     1
281
     1
  3
ACAD_XREC_ROUNDTRIP
360
7B3
  0
DICTIONARY
  5
7A8
330
33
100
AcDbDictionary
280
     1
281
     1
  3
ACAD_XREC_ROUNDTRIP
360
7A9
  0
DICTIONARY
  5
7B0
330
37
100
AcDbDictionary
280
     1
281
     1
  3
ACAD_XREC_ROUNDTRIP
360
7B1
  0
XRECORD
  5
7BB
102
{ACAD_REACTORS
330
7BA
102
}
330
7BA
100
AcDbXrecord
280
     1
102
MATERIAL
148
0.0
149
0.0
149
0.0
 93
        0
 94
      127
282
     0
 72
     1
 77
     1
171
     1
175
     1
179
     1
273
     0
  0
XRECORD
  5
7B9
102
{ACAD_REACTORS
330
7B8
102
}
330
7B8
100
AcDbXrecord
280
     1
102
MATERIAL
148
0.0
149
0.0
149
0.0
 93
        0
 94
      127
282
     0
 72
     1
 77
     1
171
     1
175
     1
179
     1
273
     0
  0
XRECORD
  5
7BD
102
{ACAD_REACTORS
330
7BC
102
}
330
7BC
100
AcDbXrecord
280
     1
102
MATERIAL
148
0.0
149
0.0
149
0.0
 93
        0
 94
      127
282
     0
 72
     1
 77
     1
171
     1
175
     1
179
     1
273
     0
  0
XRECORD
  5
7A1
102
{ACAD_REACTORS
330
7A0
102
}
330
7A0
100
AcDbXrecord
280
     1
102
RTVSPropertyOp0
 70
     1
102
RTVSPropertyOp1
 70
     1
102
RTVSPropertyOp2
 70
     1
102
RTVSPropertyOp3
 70
     1
102
RTVSPropertyOp4
 70
     1
102
RTVSPropertyOp5
 70
     1
102
RTVSPropertyOp6
 70
     1
102
RTVSPropertyOp7
 70
     1
102
RTVSPropertyOp8
 70
     1
102
RTVSPropertyOp9
 70
     1
102
RTVSPropertyOp10
 70
     1
102
RTVSPropertyOp11
 70
     1
102
RTVSPropertyOp12
 70
     1
102
RTVSPropertyOp13
 70
     1
102
RTVSPropertyOp14
 70
     1
102
RTVSPropertyOp15
 70
     1
102
RTVSPropertyOp16
 70
     1
102
RTVSPropertyOp17
 70
     1
102
RTVSPropertyOp18
 70
     1
102
RTVSPropertyOp19
 70
     1
102
RTVSPropertyOp20
 70
     1
102
RTVSPropertyOp21
 70
     1
102
RTVSPropertyOp22
 70
     1
102
RTVSPropertyOp23
 70
     1
102
RTVSPropertyOp24
 70
     1
102
RTVSPropertyOp25
 70
     1
102
RTVSPropertyOp26
 70
     1
102
RTVSPropertyOp27
 70
     1
102
RTVSPropertyOp28
 70
     1
102
RTVSPropertyOp29
 70
     1
102
RTVSPropertyOp30
 70
     1
102
RTVSPropertyOp31
 70
     1
102
RTVSPropertyOp32
 70
     1
  0
XRECORD
  5
7A5
102
{ACAD_REACTORS
330
7A4
102
}
330
7A4
100
AcDbXrecord
280
     1
102
RTVSPropertyOp0
 70
     1
102
RTVSPropertyOp1
 70
     1
102
RTVSPropertyOp2
 70
     1
102
RTVSPropertyOp3
 70
     1
102
RTVSPropertyOp4
 70
     1
102
RTVSPropertyOp5
 70
     1
102
RTVSPropertyOp6
 70
     1
102
RTVSPropertyOp7
 70
     1
102
RTVSPropertyOp8
 70
     1
102
RTVSPropertyOp9
 70
     1
102
RTVSPropertyOp10
 70
     1
102
RTVSPropertyOp11
 70
     1
102
RTVSPropertyOp12
 70
     1
102
RTVSPropertyOp13
 70
     1
102
RTVSPropertyOp14
 70
     1
102
RTVSPropertyOp15
 70
     1
102
RTVSPropertyOp16
 70
     1
102
RTVSPropertyOp17
 70
     1
102
RTVSPropertyOp18
 70
     1
102
RTVSPropertyOp19
 70
     1
102
RTVSPropertyOp20
 70
     1
102
RTVSPropertyOp21
 70
     1
102
RTVSPropertyOp22
 70
     1
102
RTVSPropertyOp23
 70
     1
102
RTVSPropertyOp24
 70
     1
102
RTVSPropertyOp25
 70
     1
102
RTVSPropertyOp26
 70
     1
102
RTVSPropertyOp27
 70
     1
102
RTVSPropertyOp28
 70
     1
102
RTVSPropertyOp29
 70
     1
102
RTVSPropertyOp30
 70
     1
102
RTVSPropertyOp31
 70
     1
102
RTVSPropertyOp32
 70
     1
  0
XRECORD
  5
7A3
102
{ACAD_REACTORS
330
7A2
102
}
330
7A2
100
AcDbXrecord
280
     1
102
RTVSPropertyOp0
 70
     1
102
RTVSPropertyOp1
 70
     1
102
RTVSPropertyOp2
 70
     1
102
RTVSPropertyOp3
 70
     1
102
RTVSPropertyOp4
 70
     1
102
RTVSPropertyOp5
 70
     1
102
RTVSPropertyOp6
 70
     1
102
RTVSPropertyOp7
 70
     1
102
RTVSPropertyOp8
 70
     1
102
RTVSPropertyOp9
 70
     1
102
RTVSPropertyOp10
 70
     1
102
RTVSPropertyOp11
 70
     1
102
RTVSPropertyOp12
 70
     1
102
RTVSPropertyOp13
 70
     1
102
RTVSPropertyOp14
 70
     1
102
RTVSPropertyOp15
 70
     1
102
RTVSPropertyOp16
 70
     1
102
RTVSPropertyOp17
 70
     1
102
RTVSPropertyOp18
 70
     1
102
RTVSPropertyOp19
 70
     1
102
RTVSPropertyOp20
 70
     1
102
RTVSPropertyOp21
 70
     1
102
RTVSPropertyOp22
 70
     1
102
RTVSPropertyOp23
 70
     1
102
RTVSPropertyOp24
 70
     1
102
RTVSPropertyOp25
 70
     1
102
RTVSPropertyOp26
 70
     1
102
RTVSPropertyOp27
 70
     1
102
RTVSPropertyOp28
 70
     1
102
RTVSPropertyOp29
 70
     1
102
RTVSPropertyOp30
 70
     1
102
RTVSPropertyOp31
 70
     1
102
RTVSPropertyOp32
 70
     1
  0
XRECORD
  5
7A7
102
{ACAD_REACTORS
330
7A6
102
}
330
7A6
100
AcDbXrecord
280
     1
102
RTVSPropertyOp0
 70
     1
102
RTVSPropertyOp1
 70
     1
102
RTVSPropertyOp2
 70
     1
102
RTVSPropertyOp3
 70
     1
102
RTVSPropertyOp4
 70
     1
102
RTVSPropertyOp5
 70
     1
102
RTVSPropertyOp6
 70
     1
102
RTVSPropertyOp7
 70
     1
102
RTVSPropertyOp8
 70
     1
102
RTVSPropertyOp9
 70
     1
102
RTVSPropertyOp10
 70
     1
102
RTVSPropertyOp11
 70
     1
102
RTVSPropertyOp12
 70
     1
102
RTVSPropertyOp13
 70
     1
102
RTVSPropertyOp14
 70
     1
102
RTVSPropertyOp15
 70
     1
102
RTVSPropertyOp16
 70
     1
102
RTVSPropertyOp17
 70
     1
102
RTVSPropertyOp18
 70
     1
102
RTVSPropertyOp19
 70
     1
102
RTVSPropertyOp20
 70
     1
102
RTVSPropertyOp21
 70
     1
102
RTVSPropertyOp22
 70
     1
102
RTVSPropertyOp23
 70
     1
102
RTVSPropertyOp24
 70
     1
102
RTVSPropertyOp25
 70
     1
102
RTVSPropertyOp26
 70
     1
102
RTVSPropertyOp27
 70
     1
102
RTVSPropertyOp28
 70
     1
102
RTVSPropertyOp29
 70
     1
102
RTVSPropertyOp30
 70
     1
102
RTVSPropertyOp31
 70
     1
102
RTVSPropertyOp32
 70
     1
  0
XRECORD
  5
7AF
102
{ACAD_REACTORS
330
7AE
102
}
330
7AE
100
AcDbXrecord
280
     1
102
RTVSPropertyOp0
 70
     1
102
RTVSPropertyOp1
 70
     1
102
RTVSPropertyOp2
 70
     1
102
RTVSPropertyOp3
 70
     1
102
RTVSPropertyOp4
 70
     1
102
RTVSPropertyOp5
 70
     1
102
RTVSPropertyOp6
 70
     1
102
RTVSPropertyOp7
 70
     1
102
RTVSPropertyOp8
 70
     1
102
RTVSPropertyOp9
 70
     1
102
RTVSPropertyOp10
 70
     1
102
RTVSPropertyOp11
 70
     1
102
RTVSPropertyOp12
 70
     1
102
RTVSPropertyOp13
 70
     1
102
RTVSPropertyOp14
 70
     1
102
RTVSPropertyOp15
 70
     1
102
RTVSPropertyOp16
 70
     1
102
RTVSPropertyOp17
 70
     1
102
RTVSPropertyOp18
 70
     1
102
RTVSPropertyOp19
 70
     1
102
RTVSPropertyOp20
 70
     1
102
RTVSPropertyOp21
 70
     1
102
RTVSPropertyOp22
 70
     1
102
RTVSPropertyOp23
 70
     1
102
RTVSPropertyOp24
 70
     1
102
RTVSPropertyOp25
 70
     1
102
RTVSPropertyOp26
 70
     1
102
RTVSPropertyOp27
 70
     1
102
RTVSPropertyOp28
 70
     1
102
RTVSPropertyOp29
 70
     1
102
RTVSPropertyOp30
 70
     1
102
RTVSPropertyOp31
 70
     1
102
RTVSPropertyOp32
 70
     1
  0
XRECORD
  5
7B7
102
{ACAD_REACTORS
330
7B6
102
}
330
7B6
100
AcDbXrecord
280
     1
102
RTVSPropertyOp0
 70
     1
102
RTVSPropertyOp1
 70
     1
102
RTVSPropertyOp2
 70
     1
102
RTVSPropertyOp3
 70
     1
102
RTVSPropertyOp4
 70
     1
102
RTVSPropertyOp5
 70
     1
102
RTVSPropertyOp6
 70
     1
102
RTVSPropertyOp7
 70
     1
102
RTVSPropertyOp8
 70
     1
102
RTVSPropertyOp9
 70
     1
102
RTVSPropertyOp10
 70
     1
102
RTVSPropertyOp11
 70
     1
102
RTVSPropertyOp12
 70
     1
102
RTVSPropertyOp13
 70
     1
102
RTVSPropertyOp14
 70
     1
102
RTVSPropertyOp15
 70
     1
102
RTVSPropertyOp16
 70
     1
102
RTVSPropertyOp17
 70
     1
102
RTVSPropertyOp18
 70
     1
102
RTVSPropertyOp19
 70
     1
102
RTVSPropertyOp20
 70
     1
102
RTVSPropertyOp21
 70
     1
102
RTVSPropertyOp22
 70
     1
102
RTVSPropertyOp23
 70
     1
102
RTVSPropertyOp24
 70
     1
102
RTVSPropertyOp25
 70
     1
102
RTVSPropertyOp26
 70
     1
102
RTVSPropertyOp27
 70
     1
102
RTVSPropertyOp28
 70
     1
102
RTVSPropertyOp29
 70
     1
102
RTVSPropertyOp30
 70
     1
102
RTVSPropertyOp31
 70
     1
102
RTVSPropertyOp32
 70
     1
  0
XRECORD
  5
7AB
102
{ACAD_REACTORS
330
7AA
102
}
330
7AA
100
AcDbXrecord
280
     1
102
RTVSPropertyOp0
 70
     1
102
RTVSPropertyOp1
 70
     1
102
RTVSPropertyOp2
 70
     1
102
RTVSPropertyOp3
 70
     1
102
RTVSPropertyOp4
 70
     1
102
RTVSPropertyOp5
 70
     1
102
RTVSPropertyOp6
 70
     1
102
RTVSPropertyOp7
 70
     1
102
RTVSPropertyOp8
 70
     1
102
RTVSPropertyOp9
 70
     1
102
RTVSPropertyOp10
 70
     1
102
RTVSPropertyOp11
 70
     1
102
RTVSPropertyOp12
 70
     1
102
RTVSPropertyOp13
 70
     1
102
RTVSPropertyOp14
 70
     1
102
RTVSPropertyOp15
 70
     1
102
RTVSPropertyOp16
 70
     1
102
RTVSPropertyOp17
 70
     1
102
RTVSPropertyOp18
 70
     1
102
RTVSPropertyOp19
 70
     1
102
RTVSPropertyOp20
 70
     1
102
RTVSPropertyOp21
 70
     1
102
RTVSPropertyOp22
 70
     1
102
RTVSPropertyOp23
 70
     1
102
RTVSPropertyOp24
 70
     1
102
RTVSPropertyOp25
 70
     1
102
RTVSPropertyOp26
 70
     1
102
RTVSPropertyOp27
 70
     1
102
RTVSPropertyOp28
 70
     1
102
RTVSPropertyOp29
 70
     1
102
RTVSPropertyOp30
 70
     1
102
RTVSPropertyOp31
 70
     1
102
RTVSPropertyOp32
 70
     1
  0
XRECORD
  5
7AD
102
{ACAD_REACTORS
330
7AC
102
}
330
7AC
100
AcDbXrecord
280
     1
102
RTVSPropertyOp0
 70
     1
102
RTVSPropertyOp1
 70
     1
102
RTVSPropertyOp2
 70
     1
102
RTVSPropertyOp3
 70
     1
102
RTVSPropertyOp4
 70
     1
102
RTVSPropertyOp5
 70
     1
102
RTVSPropertyOp6
 70
     1
102
RTVSPropertyOp7
 70
     1
102
RTVSPropertyOp8
 70
     1
102
RTVSPropertyOp9
 70
     1
102
RTVSPropertyOp10
 70
     1
102
RTVSPropertyOp11
 70
     1
102
RTVSPropertyOp12
 70
     1
102
RTVSPropertyOp13
 70
     1
102
RTVSPropertyOp14
 70
     1
102
RTVSPropertyOp15
 70
     1
102
RTVSPropertyOp16
 70
     1
102
RTVSPropertyOp17
 70
     1
102
RTVSPropertyOp18
 70
     1
102
RTVSPropertyOp19
 70
     1
102
RTVSPropertyOp20
 70
     1
102
RTVSPropertyOp21
 70
     1
102
RTVSPropertyOp22
 70
     1
102
RTVSPropertyOp23
 70
     1
102
RTVSPropertyOp24
 70
     1
102
RTVSPropertyOp25
 70
     1
102
RTVSPropertyOp26
 70
     1
102
RTVSPropertyOp27
 70
     1
102
RTVSPropertyOp28
 70
     1
102
RTVSPropertyOp29
 70
     1
102
RTVSPropertyOp30
 70
     1
102
RTVSPropertyOp31
 70
     1
102
RTVSPropertyOp32
 70
     1
  0
XRECORD
  5
7B5
102
{ACAD_REACTORS
330
7B4
102
}
330
7B4
100
AcDbXrecord
280
     1
102
RTVSPropertyOp0
 70
     1
102
RTVSPropertyOp1
 70
     1
102
RTVSPropertyOp2
 70
     1
102
RTVSPropertyOp3
 70
     1
102
RTVSPropertyOp4
 70
     1
102
RTVSPropertyOp5
 70
     1
102
RTVSPropertyOp6
 70
     1
102
RTVSPropertyOp7
 70
     1
102
RTVSPropertyOp8
 70
     1
102
RTVSPropertyOp9
 70
     1
102
RTVSPropertyOp10
 70
     1
102
RTVSPropertyOp11
 70
     1
102
RTVSPropertyOp12
 70
     1
102
RTVSPropertyOp13
 70
     1
102
RTVSPropertyOp14
 70
     1
102
RTVSPropertyOp15
 70
     1
102
RTVSPropertyOp16
 70
     1
102
RTVSPropertyOp17
 70
     1
102
RTVSPropertyOp18
 70
     1
102
RTVSPropertyOp19
 70
     1
102
RTVSPropertyOp20
 70
     1
102
RTVSPropertyOp21
 70
     1
102
RTVSPropertyOp22
 70
     1
102
RTVSPropertyOp23
 70
     1
102
RTVSPropertyOp24
 70
     1
102
RTVSPropertyOp25
 70
     1
102
RTVSPropertyOp26
 70
     1
102
RTVSPropertyOp27
 70
     1
102
RTVSPropertyOp28
 70
     1
102
RTVSPropertyOp29
 70
     1
102
RTVSPropertyOp30
 70
     1
102
RTVSPropertyOp31
 70
     1
102
RTVSPropertyOp32
 70
     1
  0
XRECORD
  5
799
102
{ACAD_REACTORS
330
798
102
}
330
798
100
AcDbXrecord
280
     1
102
RTVSPropertyOp0
 70
     1
102
RTVSPropertyOp1
 70
     1
102
RTVSPropertyOp2
 70
     1
102
RTVSPropertyOp3
 70
     1
102
RTVSPropertyOp4
 70
     1
102
RTVSPropertyOp5
 70
     1
102
RTVSPropertyOp6
 70
     1
102
RTVSPropertyOp7
 70
     1
102
RTVSPropertyOp8
 70
     1
102
RTVSPropertyOp9
 70
     1
102
RTVSPropertyOp10
 70
     1
102
RTVSPropertyOp11
 70
     1
102
RTVSPropertyOp12
 70
     1
102
RTVSPropertyOp13
 70
     1
102
RTVSPropertyOp14
 70
     1
102
RTVSPropertyOp15
 70
     1
102
RTVSPropertyOp16
 70
     1
102
RTVSPropertyOp17
 70
     1
102
RTVSPropertyOp18
 70
     1
102
RTVSPropertyOp19
 70
     1
102
RTVSPropertyOp20
 70
     1
102
RTVSPropertyOp21
 70
     1
102
RTVSPropertyOp22
 70
     1
102
RTVSPropertyOp23
 70
     1
102
RTVSPropertyOp24
 70
     1
102
RTVSPropertyOp25
 70
     1
102
RTVSPropertyOp26
 70
     1
102
RTVSPropertyOp27
 70
     1
102
RTVSPropertyOp28
 70
     1
102
RTVSPropertyOp29
 70
     1
102
RTVSPropertyOp30
 70
     1
102
RTVSPropertyOp31
 70
     1
102
RTVSPropertyOp32
 70
     1
  0
XRECORD
  5
79B
102
{ACAD_REACTORS
330
79A
102
}
330
79A
100
AcDbXrecord
280
     1
102
RTVSPropertyOp0
 70
     1
102
RTVSPropertyOp1
 70
     1
102
RTVSPropertyOp2
 70
     1
102
RTVSPropertyOp3
 70
     1
102
RTVSPropertyOp4
 70
     1
102
RTVSPropertyOp5
 70
     1
102
RTVSPropertyOp6
 70
     1
102
RTVSPropertyOp7
 70
     1
102
RTVSPropertyOp8
 70
     1
102
RTVSPropertyOp9
 70
     1
102
RTVSPropertyOp10
 70
     1
102
RTVSPropertyOp11
 70
     1
102
RTVSPropertyOp12
 70
     1
102
RTVSPropertyOp13
 70
     1
102
RTVSPropertyOp14
 70
     1
102
RTVSPropertyOp15
 70
     1
102
RTVSPropertyOp16
 70
     1
102
RTVSPropertyOp17
 70
     1
102
RTVSPropertyOp18
 70
     1
102
RTVSPropertyOp19
 70
     1
102
RTVSPropertyOp20
 70
     1
102
RTVSPropertyOp21
 70
     1
102
RTVSPropertyOp22
 70
     1
102
RTVSPropertyOp23
 70
     1
102
RTVSPropertyOp24
 70
     1
102
RTVSPropertyOp25
 70
     1
102
RTVSPropertyOp26
 70
     1
102
RTVSPropertyOp27
 70
     1
102
RTVSPropertyOp28
 70
     1
102
RTVSPropertyOp29
 70
     1
102
RTVSPropertyOp30
 70
     1
102
RTVSPropertyOp31
 70
     1
102
RTVSPropertyOp32
 70
     1
  0
XRECORD
  5
79D
102
{ACAD_REACTORS
330
79C
102
}
330
79C
100
AcDbXrecord
280
     1
102
RTVSPropertyOp0
 70
     1
102
RTVSPropertyOp1
 70
     1
102
RTVSPropertyOp2
 70
     1
102
RTVSPropertyOp3
 70
     1
102
RTVSPropertyOp4
 70
     1
102
RTVSPropertyOp5
 70
     1
102
RTVSPropertyOp6
 70
     1
102
RTVSPropertyOp7
 70
     1
102
RTVSPropertyOp8
 70
     1
102
RTVSPropertyOp9
 70
     1
102
RTVSPropertyOp10
 70
     1
102
RTVSPropertyOp11
 70
     1
102
RTVSPropertyOp12
 70
     1
102
RTVSPropertyOp13
 70
     1
102
RTVSPropertyOp14
 70
     1
102
RTVSPropertyOp15
 70
     1
102
RTVSPropertyOp16
 70
     1
102
RTVSPropertyOp17
 70
     1
102
RTVSPropertyOp18
 70
     1
102
RTVSPropertyOp19
 70
     1
102
RTVSPropertyOp20
 70
     1
102
RTVSPropertyOp21
 70
     1
102
RTVSPropertyOp22
 70
     1
102
RTVSPropertyOp23
 70
     1
102
RTVSPropertyOp24
 70
     1
102
RTVSPropertyOp25
 70
     1
102
RTVSPropertyOp26
 70
     1
102
RTVSPropertyOp27
 70
     1
102
RTVSPropertyOp28
 70
     1
102
RTVSPropertyOp29
 70
     1
102
RTVSPropertyOp30
 70
     1
102
RTVSPropertyOp31
 70
     1
102
RTVSPropertyOp32
 70
     1
  0
XRECORD
  5
79F
102
{ACAD_REACTORS
330
79E
102
}
330
79E
100
AcDbXrecord
280
     1
102
RTVSPropertyOp0
 70
     1
102
RTVSPropertyOp1
 70
     1
102
RTVSPropertyOp2
 70
     1
102
RTVSPropertyOp3
 70
     1
102
RTVSPropertyOp4
 70
     1
102
RTVSPropertyOp5
 70
     1
102
RTVSPropertyOp6
 70
     1
102
RTVSPropertyOp7
 70
     1
102
RTVSPropertyOp8
 70
     1
102
RTVSPropertyOp9
 70
     1
102
RTVSPropertyOp10
 70
     1
102
RTVSPropertyOp11
 70
     1
102
RTVSPropertyOp12
 70
     1
102
RTVSPropertyOp13
 70
     1
102
RTVSPropertyOp14
 70
     1
102
RTVSPropertyOp15
 70
     1
102
RTVSPropertyOp16
 70
     1
102
RTVSPropertyOp17
 70
     1
102
RTVSPropertyOp18
 70
     1
102
RTVSPropertyOp19
 70
     1
102
RTVSPropertyOp20
 70
     1
102
RTVSPropertyOp21
 70
     1
102
RTVSPropertyOp22
 70
     1
102
RTVSPropertyOp23
 70
     1
102
RTVSPropertyOp24
 70
     1
102
RTVSPropertyOp25
 70
     1
102
RTVSPropertyOp26
 70
     1
102
RTVSPropertyOp27
 70
     1
102
RTVSPropertyOp28
 70
     1
102
RTVSPropertyOp29
 70
     1
102
RTVSPropertyOp30
 70
     1
102
RTVSPropertyOp31
 70
     1
102
RTVSPropertyOp32
 70
     1
  0
XRECORD
  5
7B3
102
{ACAD_REACTORS
330
7B2
102
}
330
7B2
100
AcDbXrecord
280
     1
102
RTVSPropertyOp0
 70
     1
102
RTVSPropertyOp1
 70
     1
102
RTVSPropertyOp2
 70
     1
102
RTVSPropertyOp3
 70
     1
102
RTVSPropertyOp4
 70
     1
102
RTVSPropertyOp5
 70
     1
102
RTVSPropertyOp6
 70
     1
102
RTVSPropertyOp7
 70
     1
102
RTVSPropertyOp8
 70
     1
102
RTVSPropertyOp9
 70
     1
102
RTVSPropertyOp10
 70
     1
102
RTVSPropertyOp11
 70
     1
102
RTVSPropertyOp12
 70
     1
102
RTVSPropertyOp13
 70
     1
102
RTVSPropertyOp14
 70
     1
102
RTVSPropertyOp15
 70
     1
102
RTVSPropertyOp16
 70
     1
102
RTVSPropertyOp17
 70
     1
102
RTVSPropertyOp18
 70
     1
102
RTVSPropertyOp19
 70
     1
102
RTVSPropertyOp20
 70
     1
102
RTVSPropertyOp21
 70
     1
102
RTVSPropertyOp22
 70
     1
102
RTVSPropertyOp23
 70
     1
102
RTVSPropertyOp24
 70
     1
102
RTVSPropertyOp25
 70
     1
102
RTVSPropertyOp26
 70
     1
102
RTVSPropertyOp27
 70
     1
102
RTVSPropertyOp28
 70
     1
102
RTVSPropertyOp29
 70
     1
102
RTVSPropertyOp30
 70
     1
102
RTVSPropertyOp31
 70
     1
102
RTVSPropertyOp32
 70
     1
  0
XRECORD
  5
7A9
102
{ACAD_REACTORS
330
7A8
102
}
330
7A8
100
AcDbXrecord
280
     1
102
RTVSPropertyOp0
 70
     1
102
RTVSPropertyOp1
 70
     1
102
RTVSPropertyOp2
 70
     1
102
RTVSPropertyOp3
 70
     1
102
RTVSPropertyOp4
 70
     1
102
RTVSPropertyOp5
 70
     1
102
RTVSPropertyOp6
 70
     1
102
RTVSPropertyOp7
 70
     1
102
RTVSPropertyOp8
 70
     1
102
RTVSPropertyOp9
 70
     1
102
RTVSPropertyOp10
 70
     1
102
RTVSPropertyOp11
 70
     1
102
RTVSPropertyOp12
 70
     1
102
RTVSPropertyOp13
 70
     1
102
RTVSPropertyOp14
 70
     1
102
RTVSPropertyOp15
 70
     1
102
RTVSPropertyOp16
 70
     1
102
RTVSPropertyOp17
 70
     1
102
RTVSPropertyOp18
 70
     1
102
RTVSPropertyOp19
 70
     1
102
RTVSPropertyOp20
 70
     1
102
RTVSPropertyOp21
 70
     1
102
RTVSPropertyOp22
 70
     1
102
RTVSPropertyOp23
 70
     1
102
RTVSPropertyOp24
 70
     1
102
RTVSPropertyOp25
 70
     1
102
RTVSPropertyOp26
 70
     1
102
RTVSPropertyOp27
 70
     1
102
RTVSPropertyOp28
 70
     1
102
RTVSPropertyOp29
 70
     1
102
RTVSPropertyOp30
 70
     1
102
RTVSPropertyOp31
 70
     1
102
RTVSPropertyOp32
 70
     1
  0
XRECORD
  5
7B1
102
{ACAD_REACTORS
330
7B0
102
}
330
7B0
100
AcDbXrecord
280
     1
102
RTVSPropertyOp0
 70
     1
102
RTVSPropertyOp1
 70
     1
102
RTVSPropertyOp2
 70
     1
102
RTVSPropertyOp3
 70
     1
102
RTVSPropertyOp4
 70
     1
102
RTVSPropertyOp5
 70
     1
102
RTVSPropertyOp6
 70
     1
102
RTVSPropertyOp7
 70
     1
102
RTVSPropertyOp8
 70
     1
102
RTVSPropertyOp9
 70
     1
102
RTVSPropertyOp10
 70
     1
102
RTVSPropertyOp11
 70
     1
102
RTVSPropertyOp12
 70
     1
102
RTVSPropertyOp13
 70
     1
102
RTVSPropertyOp14
 70
     1
102
RTVSPropertyOp15
 70
     1
102
RTVSPropertyOp16
 70
     1
102
RTVSPropertyOp17
 70
     1
102
RTVSPropertyOp18
 70
     1
102
RTVSPropertyOp19
 70
     1
102
RTVSPropertyOp20
 70
     1
102
RTVSPropertyOp21
 70
     1
102
RTVSPropertyOp22
 70
     1
102
RTVSPropertyOp23
 70
     1
102
RTVSPropertyOp24
 70
     1
102
RTVSPropertyOp25
 70
     1
102
RTVSPropertyOp26
 70
     1
102
RTVSPropertyOp27
 70
     1
102
RTVSPropertyOp28
 70
     1
102
RTVSPropertyOp29
 70
     1
102
RTVSPropertyOp30
 70
     1
102
RTVSPropertyOp31
 70
     1
102
RTVSPropertyOp32
 70
     1
  0
ENDSEC
  0
EOF
